Поиск

(Hard Bop, Post-Bop) VA - Blues for Coltrane: A Tribute to John Coltrane (w/ McCoy Tyner, Pharoah Sanders, David Murray, Cecil McBee, Roy Haynes) - 1987, FLAC (tracks+.cue), lossless

(Hard Bop, Post-Bop) VA - Blues for Coltrane: A Tribute to John Coltrane (w/ McCoy Tyner, Pharoah Sanders, David Murray, Cecil McBee, Roy Haynes) - 1987, FLAC (tracks+.cue), lossless
Треклист:
Blues for Coltrane: A Tribute to John Coltrane
Жанр: Hard Bop, Post-Bop
Год издания: 1988
Издатель (лейбл): Impulse!
Номер по каталогу: MCAD-42122
Страна: США
Аудиокодек: FLAC (*.flac)
Тип рипа: tracks+.cue
Битрейт аудио: lossless
Продолжительность: 52:27
Источник (релизер): lazyicarus (what)
Наличие сканов в содержимом раздачи: нет
Треклист:
01. Bluesin' for John C. (Tyner) - 6:01
02. Naima (Coltrane) - 6:05
03. The Promise (Coltrane) - 8:15
04. Lazy Bird (Coltrane) - 4:17
05. I Want to Talk About You (Eckstine) - 9:17
06. Last of the Hipmen (Murray) - 8:20
07. Trane (Murray) - 10:15
Состав:
Pharoah Sanders - tenor saxophone (#1-3,7)
David Murray - tenor saxophone (#5-7)
McCoy Tyner - piano
Cecil McBee - bass
Roy Haynes - drums
Recorded in New York City on July 9, 1987.
 
Лог создания рипа
Exact Audio Copy V0.99 prebeta 4 from 23. January 2008
EAC extraction logfile from 15. May 2009, 23:20
McCoy Tyner/ Pharoah Sander/ David Murray/ Cecil McBee/ Roy Haynes / A Tribute to John Coltrane
Used drive : HL-DT-STDVDRAM GH15F Adapter: 1 ID: 0
Read mode : Secure
Utilize accurate stream : Yes
Defeat audio cache : Yes
Make use of C2 pointers : No
Read offset correction : 667
Overread into Lead-In and Lead-Out : No
Fill up missing offset samples with silence : Yes
Delete leading and trailing silent blocks : No
Null samples used in CRC calculations : Yes
Used interface : Native Win32 interface for Win NT & 2000
Gap handling : Appended to previous track
Used output format : Internal WAV Routines
Sample format : 44.100 Hz; 16 Bit; Stereo
TOC of the extracted CD
Track | Start | Length | Start sector | End sector
---------------------------------------------------------
1 | 0:00.00 | 6:00.50 | 0 | 27049
2 | 6:00.50 | 6:05.17 | 27050 | 54441
3 | 12:05.67 | 8:14.63 | 54442 | 91554
4 | 20:20.55 | 4:17.32 | 91555 | 110861
5 | 24:38.12 | 9:16.40 | 110862 | 152601
6 | 33:54.52 | 8:20.15 | 152602 | 190116
7 | 42:14.67 | 10:15.35 | 190117 | 236276
Track 1
Filename J:\Eac Rips\McCoy Tyner, Pharoah Sander, David Murray, Cecil McBee, Roy Haynes - 1988 - A Tribute to John Coltrane\01 - Bluesin' For John C..wav
Pre-gap length 0:00:02.00
Peak level 100.0 %
Track quality 100.0 %
Test CRC D0C34112
Copy CRC D0C34112
Accurately ripped (confidence 3) [04C1A1CF]
Copy OK
Track 2
Filename J:\Eac Rips\McCoy Tyner, Pharoah Sander, David Murray, Cecil McBee, Roy Haynes - 1988 - A Tribute to John Coltrane\02 - Naima.wav
Pre-gap length 0:00:02.46
Peak level 99.9 %
Track quality 100.0 %
Test CRC 87E20511
Copy CRC 87E20511
Accurately ripped (confidence 3) [E8B5B744]
Copy OK
Track 3
Filename J:\Eac Rips\McCoy Tyner, Pharoah Sander, David Murray, Cecil McBee, Roy Haynes - 1988 - A Tribute to John Coltrane\03 - The Promise.wav
Pre-gap length 0:00:01.42
Peak level 76.0 %
Track quality 100.0 %
Test CRC 133CEAAF
Copy CRC 133CEAAF
Accurately ripped (confidence 3) [B5357FC5]
Copy OK
Track 4
Filename J:\Eac Rips\McCoy Tyner, Pharoah Sander, David Murray, Cecil McBee, Roy Haynes - 1988 - A Tribute to John Coltrane\04 - Lazy Bird.wav
Pre-gap length 0:00:01.40
Peak level 95.6 %
Track quality 100.0 %
Test CRC 803D82B3
Copy CRC 803D82B3
Accurately ripped (confidence 3) [4931783A]
Copy OK
Track 5
Filename J:\Eac Rips\McCoy Tyner, Pharoah Sander, David Murray, Cecil McBee, Roy Haynes - 1988 - A Tribute to John Coltrane\05 - I Want to Talk About You.wav
Pre-gap length 0:00:01.16
Peak level 100.0 %
Track quality 99.9 %
Test CRC AA7AD091
Copy CRC AA7AD091
Accurately ripped (confidence 3) [98BF7476]
Copy OK
Track 6
Filename J:\Eac Rips\McCoy Tyner, Pharoah Sander, David Murray, Cecil McBee, Roy Haynes - 1988 - A Tribute to John Coltrane\06 - Last of the Hipmen.wav
Pre-gap length 0:00:03.20
Peak level 93.0 %
Track quality 100.0 %
Test CRC D7CC9EEA
Copy CRC D7CC9EEA
Accurately ripped (confidence 3) [E46E22C9]
Copy OK
Track 7
Filename J:\Eac Rips\McCoy Tyner, Pharoah Sander, David Murray, Cecil McBee, Roy Haynes - 1988 - A Tribute to John Coltrane\07 - Trane.wav
Pre-gap length 0:00:01.66
Peak level 96.0 %
Track quality 100.0 %
Test CRC D5B01931
Copy CRC D5B01931
Accurately ripped (confidence 3) [FB6C85AB]
Copy OK
All tracks accurately ripped
No errors occurred
End of status report
 
Содержание индексной карты (.CUE)
REM GENRE Jazz
REM DATE 1987
REM DISCID 4C0C4E07
REM COMMENT "ExactAudioCopy v0.99pb4"
PERFORMER "Various"
TITLE "Blues for Coltrane: A Tribute to John Coltrane"
FILE "01 - Bluesin' for John C..wav" WAVE
TRACK 01 AUDIO
TITLE "Bluesin' for John C."
PERFORMER "Various"
INDEX 01 00:00:00
TRACK 02 AUDIO
TITLE "Naima"
PERFORMER "Various"
INDEX 00 05:58:15
FILE "02 - Naima.wav" WAVE
INDEX 01 00:00:00
TRACK 03 AUDIO
TITLE "The Promise"
PERFORMER "Various"
INDEX 00 06:03:60
FILE "03 - The Promise.wav" WAVE
INDEX 01 00:00:00
TRACK 04 AUDIO
TITLE "Lazy Bird"
PERFORMER "Various"
INDEX 00 08:13:33
FILE "04 - Lazy Bird.wav" WAVE
INDEX 01 00:00:00
TRACK 05 AUDIO
TITLE "I Want to Talk About You"
PERFORMER "Various"
INDEX 00 04:16:20
FILE "05 - I Want to Talk About You.wav" WAVE
INDEX 01 00:00:00
TRACK 06 AUDIO
TITLE "Last of the Hipmen"
PERFORMER "Various"
INDEX 00 09:13:25
FILE "06 - Last of the Hipmen.wav" WAVE
INDEX 01 00:00:00
TRACK 07 AUDIO
TITLE "Trane"
PERFORMER "Various"
INDEX 00 08:18:40
FILE "07 - Trane.wav" WAVE
INDEX 01 00:00:00
 
Отчет CUETools
[CUETools log; Date: 03.10.2013 18:01:28; Version: 2.1.4]
[CTDB TOCID: _HesuXxIbDOT6naQh2jlpfDMHug-] found.
Track | CTDB Status
1 | (4/4) Accurately ripped
2 | (4/4) Accurately ripped
3 | (4/4) Accurately ripped
4 | (4/4) Accurately ripped
5 | (4/4) Accurately ripped
6 | (4/4) Accurately ripped
7 | (4/4) Accurately ripped
[AccurateRip ID: 000d2ab9-00507bec-4c0c4e07] found.
Track [ CRC | V2 ] Status
01 [04c1a1cf|962aabfe] (7+0/7) Accurately ripped
02 [e8b5b744|bb0a3c1e] (7+0/7) Accurately ripped
03 [b5357fc5|c90812df] (7+0/7) Accurately ripped
04 [4931783a|ac56fde0] (7+0/7) Accurately ripped
05 [98bf7476|df2e4fb7] (7+0/7) Accurately ripped
06 [e46e22c9|6bc3fbca] (7+0/7) Accurately ripped
07 [fb6c85ab|5cd1771c] (7+0/7) Accurately ripped
Track Peak [ CRC32 ] [W/O NULL] [ LOG ]
-- 100,0 [7E4FFDFD] [1BBA8269]
01 100,0 [D0C34112] [04858B92] CRC32
02 99,9 [87E20511] [69CF120A] CRC32
03 76,0 [133CEAAF] [79682018] CRC32
04 95,6 [803D82B3] [87516702] CRC32
05 100,0 [AA7AD091] [C08E8BDB] CRC32
06 93,0 [D7CC9EEA] [93C3960C] CRC32
07 96,0 [D5B01931] [79CCC4EE] CRC32
 
Review by Scott Yanow
This is a rather unusual and interesting CD. Pianist McCoy Tyner has recorded many tributes to his former boss John Coltrane but in this particular situation he often plays a back seat to the tenors of Pharoah Sanders and/or David Murray. Murray and Sanders actually only meet up on Murray's "Trane" (with plenty of fireworks); otherwise these are quartet performances with bassist Cecil McBee and drummer Roy Haynes, and in one case ("Lazy Bird") a trio showcase for Tyner. Pharoah often sounds close to Coltrane while Murray as usual resembles no one but himself. In addition to "Trane," other highlights include "Naima," "The Promise" and "I Want To Talk About You."
Приватный:
Нет (DHT включён)
Размер:
321.68 Мб (337,307,171 байт) » файлов: 12
Участники:
0 раздают, 0 качают (0 участников всего)
Внешние участники:
9 раздают, 3 качают (12 участников всего) [ Обновить ]
For power users only: no seeders - write to support@pro-jazz.com. Для power user: нет сидеров - пишите на support@pro-jazz.com.
01:30
103
Нет комментариев. Ваш будет первым!