Поиск

(Hard-Bop,Post-Bop,Avant-Garde) Charles Mingus-4 альбома (Tonight at Noon (1957-1961)/Jazz Portraits: Mingus In Wonderland (1959)/Blues and Roots (1959)/Me, Myself an Eye (1978)), APE (image + .cue), lossless

Треклист:
Charles Mingus-4 альбома(Tonight at Noon (1957-1961)/Jazz Portraits: Mingus In Wonderland (1959)/Blues and Roots (1959)/Me, Myself an Eye (1978))
Страна: U.S.A.
Жанр: Hard-Bop,Post-Bop,Avant-Garde
Год выпуска: 1957
Формат: APE (image + .cue)
Битрейт аудио: lossless
Продолжительность: 3:29:23
Трэклист:
1.Tonight at Noon (1957-1961) Atlantic 1998
1 Tonight at Noon/ Mingus 6:00
2 Invisible Lady / Mingus 4:51
3 "Old" Blues for Walt's Torin/ Mingus 7:57
4 Peggy's Blue Skylight/ Mingus 9:46
5 Passions of a Woman Loved / Mingus 9:47
 
скрытый текст
Exact Audio Copy V0.99 prebeta 3 from 28. July 2007
Отчёт EAC об извлечении, выполненном 21. апреля 2008, 19:08
Charles Mingus / Tonight at Noon
Дисковод: Optiarc DVD RW AD-7203A Adapter: 0 ID: 1
Режим чтения : Достоверность
Использование точного потока : Да
Отключение кэша аудио : Да
Использование указателей C2 : Нет
Коррекция смещения при чтении : 48
Способность читать области Lead-in и Lead-out : Нет
Заполнение пропущенных сэмплов тишиной : Да
Удаление блоков с тишиной в начале и конце : Нет
При вычислениях CRC использовались нулевые сэмплы : Да
Интерфейс : Установленный внешний ASPI-интерфейс
Выходной формат : Monkey's Audio Lossless Encoder v3.99 DLL
Формат сэмплов : Normal Lossless Compression
TOC извлечённого CD
Трек | Старт | Длительность | Начальный сектор | Конечный сектор
---------------------------------------------------------------------
1 | 0:00.00 | 5:59.52 | 0 | 26976
2 | 5:59.52 | 4:49.32 | 26977 | 48683
3 | 10:49.09 | 7:55.38 | 48684 | 84346
4 | 18:44.47 | 9:42.59 | 84347 | 128055
5 | 28:27.31 | 9:43.14 | 128056 | 171794
Характеристики диапазона извлечения и сообщения об ошибках
Выбранный диапазон
Имя файла C:\Documents and Settings\1\Рабочий стол\Charles Mingus - Tonight at Noon.ape
Пиковый уровень 100.0 %
Качество диапазона 99.9 %
CRC теста 8A96A7EC
CRC копии 8A96A7EC
Копирование... OK
Ошибок не произошло
AccurateRip: сводка
Трек 1 точное извлечение (доверие 1) [CA35719D]
Трек 2 точное извлечение (доверие 1) [2EAE4BC8]
Трек 3 точное извлечение (доверие 1) [FF4D6A32]
Трек 4 точное извлечение (доверие 1) [86BBFC1A]
Трек 5 точное извлечение (доверие 1) [344A19C5]
Все треки извлечены точно
Конец отчёта
2.Jazz Portraits: Mingus In Wonderland (1959) Blue Note 1994

1 Nostalgia in Times Square/ Mingus 12:18
2 I Can't Get Started/ Duke, Gershwin 10:08
3 No Private Income Blues/ Mingus 12:51
4 Alice's Wonderland/ Mingus 8:54
 
скрытый текст
Exact Audio Copy V0.99 prebeta 3 from 28. July 2007
Отчёт EAC об извлечении, выполненном 21. апреля 2008, 21:14
Charles Mingus / Mingus In Wonderland
Дисковод: Optiarc DVD RW AD-7203A Adapter: 0 ID: 1
Режим чтения : Достоверность
Использование точного потока : Да
Отключение кэша аудио : Да
Использование указателей C2 : Нет
Коррекция смещения при чтении : 48
Способность читать области Lead-in и Lead-out : Нет
Заполнение пропущенных сэмплов тишиной : Да
Удаление блоков с тишиной в начале и конце : Нет
При вычислениях CRC использовались нулевые сэмплы : Да
Интерфейс : Установленный внешний ASPI-интерфейс
Выходной формат : Monkey's Audio Lossless Encoder v3.99 DLL
Формат сэмплов : Normal Lossless Compression
TOC извлечённого CD
Трек | Старт | Длительность | Начальный сектор | Конечный сектор
---------------------------------------------------------------------
1 | 0:00.33 | 12:18.05 | 33 | 55387
2 | 12:18.38 | 10:08.50 | 55388 | 101037
3 | 22:27.13 | 12:51.30 | 101038 | 158892
4 | 35:18.43 | 8:54.45 | 158893 | 198987
Характеристики диапазона извлечения и сообщения об ошибках
Выбранный диапазон
Имя файла C:\Documents and Settings\1\Рабочий стол\Charles Mingus - Mingus In Wonderland.ape
Пиковый уровень 90.8 %
Качество диапазона 99.9 %
CRC теста 2AB3BD18
CRC копии 2AB3BD18
Копирование... OK
Ошибок не произошло
AccurateRip: сводка
Трек 1 точное извлечение (доверие 1) [B6D8A892]
Трек 2 точное извлечение (доверие 1) [AD373954]
Трек 3 точное извлечение (доверие 1) [DF9B1D3B]
Трек 4 точное извлечение (доверие 1) [62E7E9F7]
Все треки извлечены точно
Конец отчёта
3.Blues and Roots (1959) Atlantic 1998

1 Wednesday Night Prayer Meeting / Mingus 5:39
2 Cryin' Blues/ Mingus 4:58
3 Moanin' / Mingus 7:57
4 Tensions / Mingus 6:27
5 My Jelly Roll Soul / Mingus 6:47
6 E's Flat Ah's Flat Too/ Mingus 6:37
7 Wednesday Night Prayer Meeting [alternate take/#]/ Mingus 6:59
8 Tensions [alternate take/#] / Mingus 5:18
9 My Jelly Roll Soul [alternate take/#]/ Mingus 11:25
10 E's Flat Ah's Flat Too [alternate take/#]/ Mingus 6:47
 
скрытый текст
Exact Audio Copy V0.99 prebeta 3 from 28. July 2007
Отчёт EAC об извлечении, выполненном 21. апреля 2008, 20:43
Charles Mingus / Blues & Roots
Дисковод: Optiarc DVD RW AD-7203A Adapter: 0 ID: 1
Режим чтения : Достоверность
Использование точного потока : Да
Отключение кэша аудио : Да
Использование указателей C2 : Нет
Коррекция смещения при чтении : 48
Способность читать области Lead-in и Lead-out : Нет
Заполнение пропущенных сэмплов тишиной : Да
Удаление блоков с тишиной в начале и конце : Нет
При вычислениях CRC использовались нулевые сэмплы : Да
Интерфейс : Установленный внешний ASPI-интерфейс
Выходной формат : Monkey's Audio Lossless Encoder v3.99 DLL
Формат сэмплов : Normal Lossless Compression
TOC извлечённого CD
Трек | Старт | Длительность | Начальный сектор | Конечный сектор
---------------------------------------------------------------------
1 | 0:00.00 | 5:43.50 | 0 | 25774
2 | 5:43.50 | 5:03.00 | 25775 | 48499
3 | 10:46.50 | 8:02.32 | 48500 | 84681
4 | 18:49.07 | 6:30.25 | 84682 | 113956
5 | 25:19.32 | 6:50.40 | 113957 | 144746
6 | 32:09.72 | 6:47.15 | 144747 | 175286
7 | 38:57.12 | 6:59.13 | 175287 | 206724
8 | 45:56.25 | 5:18.55 | 206725 | 230629
9 | 51:15.05 | 11:25.20 | 230630 | 282024
10 | 62:40.25 | 6:47.72 | 282025 | 312621
Характеристики диапазона извлечения и сообщения об ошибках
Выбранный диапазон
Имя файла C:\Documents and Settings\1\Рабочий стол\Charles Mingus - Blues & Roots.ape
Пиковый уровень 100.0 %
Качество диапазона 100.0 %
CRC теста B5F9B767
CRC копии B5F9B767
Копирование... OK
Ошибок не произошло
AccurateRip: сводка
Трек 1 точное извлечение (доверие 10) [7ACAC832]
Трек 2 точное извлечение (доверие 9) [7C4D4429]
Трек 3 точное извлечение (доверие 8) [5DA795F4]
Трек 4 точное извлечение (доверие 8) [8EC5C3AA]
Трек 5 точное извлечение (доверие 8) [6B171DEB]
Трек 6 точное извлечение (доверие 8) [E2A73AA2]
Трек 7 точное извлечение (доверие 8) [C22A9A4E]
Трек 8 точное извлечение (доверие 8) [C24D8798]
Трек 9 точное извлечение (доверие 8) [A28DC1E1]
Трек 10 точное извлечение (доверие 8) [FA92AEBD]
Все треки извлечены точно
Конец отчёта
4.Me, Myself an Eye (1978) Atlantic 1979

1 Three Worlds of Drums / Mingus
2 Devil Woman/ Mingus
3 Wednesday Night Prayer Meeting / Mingus
4 Caroline Keikki Mingus/ Mingus
 
скрытый текст
xact Audio Copy V0.99 prebeta 3 from 28. July 2007
Отчёт EAC об извлечении, выполненном 21. апреля 2008, 19:59
Charles Mingus / Me, Myself an Eye
Дисковод: Optiarc DVD RW AD-7203A Adapter: 0 ID: 1
Режим чтения : Достоверность
Использование точного потока : Да
Отключение кэша аудио : Да
Использование указателей C2 : Нет
Коррекция смещения при чтении : 48
Способность читать области Lead-in и Lead-out : Нет
Заполнение пропущенных сэмплов тишиной : Да
Удаление блоков с тишиной в начале и конце : Нет
При вычислениях CRC использовались нулевые сэмплы : Да
Интерфейс : Установленный внешний ASPI-интерфейс
Выходной формат : Monkey's Audio Lossless Encoder v3.99 DLL
Формат сэмплов : Normal Lossless Compression
TOC извлечённого CD
Трек | Старт | Длительность | Начальный сектор | Конечный сектор
---------------------------------------------------------------------
1 | 0:00.00 | 30:22.07 | 0 | 136656
2 | 30:22.07 | 9:25.40 | 136657 | 179071
3 | 39:47.47 | 9:51.10 | 179072 | 223406
4 | 49:38.57 | 7:46.08 | 223407 | 258364
Характеристики диапазона извлечения и сообщения об ошибках
Выбранный диапазон
Имя файла C:\Documents and Settings\1\Рабочий стол\Charles Mingus - Me, Myself an Eye.ape
Пиковый уровень 98.8 %
Качество диапазона 100.0 %
CRC теста DC52BEA7
CRC копии DC52BEA7
Копирование... OK
Ошибок не произошло
AccurateRip: сводка
Трек 1 точное извлечение (доверие 1) [9DB85862]
Трек 2 точное извлечение (доверие 1) [A69C60A1]
Трек 3 точное извлечение (доверие 1) [EE46BE58]
Трек 4 точное извлечение (доверие 1) [D177B8CB]
Все треки извлечены точно
Конец отчёта
Доп. информация: Рипы с фирменных CD.сканы обложек (300 dpi) внутри.
Альбомы любезно предоставлены Дмитрием М.(Одесса) Благодарим его!
Charles Mingus-6 альбомов(1954-76г.г.)- http://rutracker.org/forum/viewtopic.php?t=787471
Приватный:
Нет (DHT включён)
Размер:
1.48 Гб (1,588,472,964 байт) » файлов: 43
Участники:
0 раздают, 0 качают (0 участников всего)
Внешние участники:
5 раздают, 1 качают (6 участников всего) [ Обновить ]
Есть вопросы - пишите личное сообщение пользователю M0p94ok.
00:40
90
Нет комментариев. Ваш будет первым!