Поиск

(Hard Bop) Nat Adderley Sextet — Much Brass (1959) — 1995, FLAC (image+.cue) lossless

Треклист:
Nat Adderley Sextet — Much Brass (1959)
Жанр: Hard Bop
Год издания диска: 1995
Лейбл: Riverside
Bar code: 0025218684828
Аудио кодек: FLAC (*.flac)
Тип рипа: image+.cue
Битрейт аудио: lossless
Продолжительность: 40:11
Риппер: mishka1981
Сканы: 300 dpi
Треклист:
01. Blue Concept (7:41)
02. Little Miss (4:32)
03. Israel (3:56)
04. What Next? (3:23)
05. Moving (5:05)
06. Blue Brass Groove (5:43)
07. Accents (5:43)
08. Sometimes I Feel Like A Motherless Child (4:08)
Personnel:
Nat Adderley - cor
Slide Hampton - tb (2-5, 7), tu (1)
Laymon Jackson - tu; b (1)
Wynton Kelly - p
Sam Jones - b; cel (1)
Albert "Tootie" Heath - d
Rec.: Reeves Sound Studios, NYC, NY, March 23 & 27, 1959.
 
 
Лог создания рипа
Exact Audio Copy V0.99 prebeta 3 from 28. July 2007
Отчёт EAC об извлечении, выполненном 14. января 2009, 15:15
Nat Adderley Sextet / Much Brass
Дисковод: HL-DT-STDVD-RAM GSA-H55N   Adapter: 0  ID: 0
Режим чтения                 : Достоверность
Использование точного потока : Да
Отключение кэша аудио        : Да
Использование указателей C2  : Нет
Коррекция смещения при чтении                     : 102
Способность читать области Lead-in и Lead-out     : Нет
Заполнение пропущенных сэмплов тишиной            : Да
Удаление блоков с тишиной в начале и конце        : Нет
При вычислениях CRC использовались нулевые сэмплы : Нет
Интерфейс                                         : Установленный внешний ASPI-интерфейс
Выходной формат          : Пользовательский кодировщик
Выбранный битрейт        : 768 kBit/s
Качество                 : Высокий
Добавление ID3-тэга      : Нет
Утилита сжатия           : C:\Program Files\Exact Audio Copy\FLAC\FLAC.EXE
Дополнительные параметры : -6 -V -T "ARTIST=%a" -T "TITLE=%t" -T "ALBUM=%g" -T "DATE=%y" -T "TRACKNUMBER=%n" -T "GENRE=%m" -T "COMMENT=%e" %s -o %d
TOC извлечённого CD
     Трек |   Старт  | Длительность | Начальный сектор | Конечный сектор
    ---------------------------------------------------------------------
       1  |  0:00.00 |    7:41.15   |           0      |      34589
       2  |  7:41.15 |    4:31.63   |       34590      |      54977
       3  | 12:13.03 |    3:55.62   |       54978      |      72664
       4  | 16:08.65 |    3:22.55   |       72665      |      87869
       5  | 19:31.45 |    5:05.20   |       87870      |     110764
       6  | 24:36.65 |    5:43.23   |      110765      |     136512
       7  | 30:20.13 |    5:43.30   |      136513      |     162267
       8  | 36:03.43 |    4:07.47   |      162268      |     180839
Характеристики диапазона извлечения и сообщения об ошибках
Выбранный диапазон
     Имя файла C:\Users\Миша\Documents\Nat Adderley Sextet - Much Brass\Nat Adderley Sextet - Much Brass.wav
     Пиковый уровень 100.0 %
     Качество диапазона 99.9 %
     CRC копии 83A0CA38
     Копирование... OK
Ошибок не произошло
AccurateRip: сводка
Трек  1  нет в базе данных
Трек  2  нет в базе данных
Трек  3  нет в базе данных
Трек  4  нет в базе данных
Трек  5  нет в базе данных
Трек  6  нет в базе данных
Трек  7  нет в базе данных
Трек  8  нет в базе данных
Ни одного трека нет в базе AccurateRip
Конец отчёта
По всем вопросам пишите личное сообщение пользователю M0p94ok.
22:04
383
Нет комментариев. Ваш будет первым!