Поиск

(grindcore / free-jazz / ambient / dub / Tzadik) John Zorn / Bill Laswell / Mick Harris - PainKiller - The Complete Studio Recordings Box 1991-1994 - 1998, FLAC (image+.cue), lossless

(grindcore / free-jazz / ambient / dub / Tzadik) John Zorn / Bill Laswell / Mick Harris - PainKiller - The Complete Studio Recordings Box 1991-1994 - 1998, FLAC (image+.cue), lossless
Треклист:
John Zorn / Bill Laswell / Mick Harris - PainKiller - The Complete Studio Recordings 1991-1994 Box
Жанр: grindcore / free-jazz / ambient / dub / Tzadik
Год выпуска диска: 1998
Производитель диска: USA (Tzadik)
Аудио кодек: FLAC
Тип рипа: image+.cue
Битрейт аудио: lossless
Продолжительность: 59.56 + 44.25 + 39.13 + 55.22
Трэклист:
CD 1 part 1 : Guts Of A Virgin (1991)
1. Scud Attack
2. Deadly Obstage Collage
3. Damage To The Mask
4. Guts Of A Virgin
5. Handjob
6. Portent
7. Hostage
8. Lathe Of God
9. Dr. Phibes
10. Purgatory Of Fiery Vulvas
11. Warhead
12. Devil's Eye
CD 1 part 2 : Buried Secrets (1991)
13. Tortured Souls
14. One-eyed Pessary
15. Trailmarker
16. Blackhole Dub
17. Buried Secrets
18. The Ladder
19. Executioner
20. Black Chamber
21. Skinned
22. The Toll
CD 1 bonus : 23. Marianne
CD 2 : Execution Ground disc 1 (1994)
1. Parish Of Tama (Ossuary Dub)
2. Morning Of Balachaturdasi
3. Pasthupatinath
CD 3 : Execution Ground disc 2 - Ambient (1994)
1. Pashupatinath (Ambient)
2. Parish Of Tama (Ambient)
CD 4 : Live In Osaka (1994)
1. Gandhamadana
2. Vaidurya
3. Satapitaka
4. Bodkyithangga
5. Zorn / Eye Duo : Black Pile / Yellow Bile / Bliue Bile / Crimson Bile / Ivory Bile
Доп. информация: John Zorn : Alto sax & Vocals
Bill Laswell : Bass & Samples
Mick Harris : Drums & Vocals
Justin Brodreick : Guitar, Drum Machines on "Buried Secrets" & "The Toll"
G.C. Green : Bass on "Buried Secrets" & "The Toll"
Haino Keiji : Guitar on "Marianne"
Makigami Koichi : Vocals on "Marianne"
Yamatsuka Eye : Vocals on "Bodkyithangga" and "Black Pile / Yellow Bile / Bliue Bile / Crimson Bile / Ivory Bile"
 
eac log cd 1
Exact Audio Copy V0.99 prebeta 4 from 23. January 2008
Отчёт EAC об извлечении, выполненном 26. октября 2008, 14:56
PainKiller / Collected Works Disc 1
Дисковод: Optiarc DVD RW AD-7170A Adapter: 0 ID: 1
Режим чтения : Достоверность
Использование точного потока : Да
Отключение кэша аудио : Да
Использование указателей C2 : Нет
Коррекция смещения при чтении : 48
Способность читать области Lead-in и Lead-out : Нет
Заполнение пропущенных сэмплов тишиной : Да
Удаление блоков с тишиной в начале и конце : Нет
При вычислениях CRC использовались нулевые сэмплы : Да
Интерфейс : Встроенный Win32-интерфейс для Win NT/2000
Выходной формат : Пользовательский кодировщик
Выбранный битрейт : 768 kBit/s
Качество : Высокий
Добавление ID3-тэга : Нет
Утилита сжатия : D:\Program Files\Exact Audio Copy\FLAC\FLAC.EXE
Дополнительные параметры : -6 -V -T "ARTIST=%a" -T "TITLE=%t" -T "ALBUM=%g" -T "DATE=%y" -T "TRACKNUMBER=%n" -T "GENRE=%m" -T "COMMENT=%e" %s -o %d
TOC извлечённого CD
Трек | Старт | Длительность | Начальный сектор | Конечный сектор
---------------------------------------------------------------------
1 | 0:00.00 | 3:07.10 | 0 | 14034
2 | 3:07.10 | 0:18.72 | 14035 | 15456
3 | 3:26.07 | 2:39.50 | 15457 | 27431
4 | 6:05.57 | 1:15.05 | 27432 | 33061
5 | 7:20.62 | 0:10.43 | 33062 | 33854
6 | 7:31.30 | 4:05.60 | 33855 | 52289
7 | 11:37.15 | 2:22.22 | 52290 | 62961
8 | 13:59.37 | 0:53.48 | 62962 | 66984
9 | 14:53.10 | 3:06.32 | 66985 | 80966
10 | 17:59.42 | 0:24.35 | 80967 | 82801
11 | 18:24.02 | 1:16.00 | 82802 | 88501
12 | 19:40.02 | 4:43.28 | 88502 | 109754
13 | 24:23.30 | 1:53.15 | 109755 | 118244
14 | 26:16.45 | 1:50.57 | 118245 | 126551
15 | 28:07.27 | 0:08.40 | 126552 | 127191
16 | 28:15.67 | 3:28.53 | 127192 | 142844
17 | 31:44.45 | 6:13.12 | 142845 | 170831
18 | 37:57.57 | 0:21.40 | 170832 | 172446
19 | 38:19.22 | 2:48.48 | 172447 | 185094
20 | 41:07.70 | 2:28.17 | 185095 | 196211
21 | 43:36.12 | 0:53.70 | 196212 | 200256
22 | 44:30.07 | 7:34.65 | 200257 | 234371
23 | 52:04.72 | 7:50.63 | 234372 | 269684
Характеристики диапазона извлечения и сообщения об ошибках
Выбранный диапазон
Имя файла D:\EAC\PainKiller - Collected Works Disc 1.wav
Пиковый уровень 98.8 %
Качество диапазона 99.9 %
CRC копии 742BB61E
Копирование... OK
Ошибок не произошло
AccurateRip: сводка
Трек 1 нет в базе данных
Трек 2 нет в базе данных
Трек 3 нет в базе данных
Трек 4 нет в базе данных
Трек 5 нет в базе данных
Трек 6 нет в базе данных
Трек 7 нет в базе данных
Трек 8 нет в базе данных
Трек 9 нет в базе данных
Трек 10 нет в базе данных
Трек 11 нет в базе данных
Трек 12 нет в базе данных
Трек 13 нет в базе данных
Трек 14 нет в базе данных
Трек 15 нет в базе данных
Трек 16 нет в базе данных
Трек 17 нет в базе данных
Трек 18 нет в базе данных
Трек 19 нет в базе данных
Трек 20 нет в базе данных
Трек 21 нет в базе данных
Трек 22 нет в базе данных
Трек 23 нет в базе данных
Ни одного трека нет в базе AccurateRip
Конец отчёта
 
eac log cd 2
Exact Audio Copy V0.99 prebeta 4 from 23. January 2008
Отчёт EAC об извлечении, выполненном 26. октября 2008, 15:07
PainKiller / Execution Ground
Дисковод: Optiarc DVD RW AD-7170A Adapter: 0 ID: 1
Режим чтения : Достоверность
Использование точного потока : Да
Отключение кэша аудио : Да
Использование указателей C2 : Нет
Коррекция смещения при чтении : 48
Способность читать области Lead-in и Lead-out : Нет
Заполнение пропущенных сэмплов тишиной : Да
Удаление блоков с тишиной в начале и конце : Нет
При вычислениях CRC использовались нулевые сэмплы : Да
Интерфейс : Встроенный Win32-интерфейс для Win NT/2000
Выходной формат : Пользовательский кодировщик
Выбранный битрейт : 768 kBit/s
Качество : Высокий
Добавление ID3-тэга : Нет
Утилита сжатия : D:\Program Files\Exact Audio Copy\FLAC\FLAC.EXE
Дополнительные параметры : -6 -V -T "ARTIST=%a" -T "TITLE=%t" -T "ALBUM=%g" -T "DATE=%y" -T "TRACKNUMBER=%n" -T "GENRE=%m" -T "COMMENT=%e" %s -o %d
TOC извлечённого CD
Трек | Старт | Длительность | Начальный сектор | Конечный сектор
---------------------------------------------------------------------
1 | 0:00.00 | 16:04.40 | 0 | 72339
2 | 16:04.40 | 14:37.65 | 72340 | 138179
3 | 30:42.30 | 13:43.00 | 138180 | 199904
Характеристики диапазона извлечения и сообщения об ошибках
Выбранный диапазон
Имя файла D:\EAC\PainKiller - Execution Ground.wav
Пиковый уровень 99.9 %
Качество диапазона 100.0 %
CRC копии 3173DCEF
Копирование... OK
Ошибок не произошло
AccurateRip: сводка
Трек 1 нет в базе данных
Трек 2 нет в базе данных
Трек 3 нет в базе данных
Ни одного трека нет в базе AccurateRip
Конец отчёта
 
eac log cd 3
Exact Audio Copy V0.99 prebeta 4 from 23. January 2008
Отчёт EAC об извлечении, выполненном 26. октября 2008, 15:16
Painkiller / Execution Ground
Дисковод: Optiarc DVD RW AD-7170A Adapter: 0 ID: 1
Режим чтения : Достоверность
Использование точного потока : Да
Отключение кэша аудио : Да
Использование указателей C2 : Нет
Коррекция смещения при чтении : 48
Способность читать области Lead-in и Lead-out : Нет
Заполнение пропущенных сэмплов тишиной : Да
Удаление блоков с тишиной в начале и конце : Нет
При вычислениях CRC использовались нулевые сэмплы : Да
Интерфейс : Встроенный Win32-интерфейс для Win NT/2000
Выходной формат : Пользовательский кодировщик
Выбранный битрейт : 768 kBit/s
Качество : Высокий
Добавление ID3-тэга : Нет
Утилита сжатия : D:\Program Files\Exact Audio Copy\FLAC\FLAC.EXE
Дополнительные параметры : -6 -V -T "ARTIST=%a" -T "TITLE=%t" -T "ALBUM=%g" -T "DATE=%y" -T "TRACKNUMBER=%n" -T "GENRE=%m" -T "COMMENT=%e" %s -o %d
TOC извлечённого CD
Трек | Старт | Длительность | Начальный сектор | Конечный сектор
---------------------------------------------------------------------
1 | 0:00.00 | 19:58.65 | 0 | 89914
2 | 19:58.65 | 19:14.15 | 89915 | 176479
Характеристики диапазона извлечения и сообщения об ошибках
Выбранный диапазон
Имя файла D:\EAC\PainKiller - Execution Ground (Ambient).wav
Пиковый уровень 100.0 %
Качество диапазона 100.0 %
CRC копии 9C9CA7A0
Копирование... OK
Ошибок не произошло
AccurateRip: сводка
Трек 1 нет в базе данных
Трек 2 нет в базе данных
Ни одного трека нет в базе AccurateRip
Конец отчёта
 
eac log cd 4
Exact Audio Copy V0.99 prebeta 4 from 23. January 2008
Отчёт EAC об извлечении, выполненном 26. октября 2008, 15:31
Painkiller / Collected Works - Disc Three
Дисковод: Optiarc DVD RW AD-7170A Adapter: 0 ID: 1
Режим чтения : Достоверность
Использование точного потока : Да
Отключение кэша аудио : Да
Использование указателей C2 : Нет
Коррекция смещения при чтении : 48
Способность читать области Lead-in и Lead-out : Нет
Заполнение пропущенных сэмплов тишиной : Да
Удаление блоков с тишиной в начале и конце : Нет
При вычислениях CRC использовались нулевые сэмплы : Да
Интерфейс : Встроенный Win32-интерфейс для Win NT/2000
Выходной формат : Пользовательский кодировщик
Выбранный битрейт : 768 kBit/s
Качество : Высокий
Добавление ID3-тэга : Нет
Утилита сжатия : D:\Program Files\Exact Audio Copy\FLAC\FLAC.EXE
Дополнительные параметры : -6 -V -T "ARTIST=%a" -T "TITLE=%t" -T "ALBUM=%g" -T "DATE=%y" -T "TRACKNUMBER=%n" -T "GENRE=%m" -T "COMMENT=%e" %s -o %d
TOC извлечённого CD
Трек | Старт | Длительность | Начальный сектор | Конечный сектор
---------------------------------------------------------------------
1 | 0:00.00 | 12:58.20 | 0 | 58369
2 | 12:58.20 | 8:58.25 | 58370 | 98744
3 | 21:56.45 | 11:15.03 | 98745 | 149372
4 | 33:11.48 | 13:04.25 | 149373 | 208197
5 | 46:15.73 | 9:05.47 | 208198 | 249119
Характеристики диапазона извлечения и сообщения об ошибках
Выбранный диапазон
Имя файла D:\EAC\Painkiller - Collected Works - Disc Three.wav
Пиковый уровень 100.0 %
Качество диапазона 100.0 %
CRC копии 26ED7273
Копирование... OK
Ошибок не произошло
AccurateRip: сводка
Трек 1 нет в базе данных
Трек 2 нет в базе данных
Трек 3 нет в базе данных
Трек 4 нет в базе данных
Трек 5 нет в базе данных
Ни одного трека нет в базе AccurateRip
Конец отчёта
в Цадиковском издании порядок дисков идет, начинаясь с нулевого - первый диск назван "disc zero". этим объясняется несоответствие в логе четвертого диска - там он прописан как третий.
Кроме этого, отличается "сетевое" и действительное название самой коробки - если в сети (на сайте лейбла, в частности, и в базе Eac) коробка названа "Painkiller - collected works", то в действительности - "Painkiller - complete studio recordings" (cм. обложку). де факто речь идет об одном релизе.
Приватный:
Нет (DHT включён)
Размер:
1.09 Гб (1,175,594,833 байт) » файлов: 12
Участники:
0 раздают, 0 качают (0 участников всего)
Внешние участники:
9 раздают, 3 качают (12 участников всего) [ Обновить ]
No seeders - write a personal message to user M0p94ok. Нет сидеров - пишите личное сообщение пользователю M0p94ok.
04:24
78
Нет комментариев. Ваш будет первым!