Поиск

(Fusion, Avant-Garde Jazz) Chick Corea, Eddie Gomez, Airto Moreira - The Boston Three Party - 2007, FLAC (image+.cue), lossless

(Fusion, Avant-Garde Jazz) Chick Corea, Eddie Gomez, Airto Moreira - The Boston Three Party - 2007, FLAC (image+.cue), lossless
Треклист:
Chick Corea, Eddie Gomez, Airto Moreira - The Boston Three Party
Жанр: Fusion, Avant-Garde Jazz
Год выпуска диска: 2007
Производитель диска: Universal Music
Аудио кодек: FLAC
Тип рипа: image+.cue
Битрейт аудио: lossless
Продолжительность: 74:01
Трэклист:
01. With A Song In My Heart 08:13
02. 500 Miles High 18:28
03. Waltz For Debby 10:35
04. Desafinado (Intro) 02:36
05. Desafinado 05:38
06. Sweet And Lovely 06:05
07. Sometime Ago - La Fiesta (Intro) 03:37
08. Sometime Ago - La Fiesta (Part 1) 06:57
09. Sometime Ago - La Fiesta (Part 2) 11:47
 
Log EAC
Exact Audio Copy V0.99 prebeta 4 from 23. January 2008
EAC extraction logfile from 8. February 2009, 23:34
Chick Corea, Eddie Gomez, Airto Moreira / The Boston Three Party
Used drive : PLEXTOR CD-R PX-W4012A Adapter: 0 ID: 1
Read mode : Secure
Utilize accurate stream : Yes
Defeat audio cache : Yes
Make use of C2 pointers : No
Read offset correction : 98
Overread into Lead-In and Lead-Out : No
Fill up missing offset samples with silence : Yes
Delete leading and trailing silent blocks : No
Null samples used in CRC calculations : Yes
Used interface : Installed external ASPI interface
Used output format : User Defined Encoder
Selected bitrate : 768 kBit/s
Quality : High
Add ID3 tag : No
Command line compressor : C:\Program Files\Exact Audio Copy 99pb4\FLAC\FLAC.EXE
Additional command line options : -6 -V -T "ARTIST=%a" -T "TITLE=%t" -T "ALBUM=%g" -T "DATE=%y" -T "TRACKNUMBER=%n" -T "GENRE=%m" -T "COMMENT=%e" %s -o %d
Use compression offset : 0
TOC of the extracted CD
Track | Start | Length | Start sector | End sector
---------------------------------------------------------
1 | 0:00.00 | 8:13.58 | 0 | 37032
2 | 8:13.58 | 18:28.61 | 37033 | 120193
3 | 26:42.44 | 10:35.18 | 120194 | 167836
4 | 37:17.62 | 2:36.27 | 167837 | 179563
5 | 39:54.14 | 5:38.65 | 179564 | 204978
6 | 45:33.04 | 6:05.67 | 204979 | 232420
7 | 51:38.71 | 3:37.48 | 232421 | 248743
8 | 55:16.44 | 6:57.42 | 248744 | 280060
9 | 62:14.11 | 11:47.37 | 280061 | 333122
Range status and errors
Selected range
Filename M:\MUSIC Losless\Chick Corea, Eddie Gomez, Airto Moreira - The Boston Three Party 2007.wav
Peak level 98.9 %
Range quality 100.0 %
Test CRC 526E08D4
Copy CRC 526E08D4
Copy OK
No errors occurred
End of status report
04:41
545
Нет комментариев. Ваш будет первым!