Поиск

(Funk, Soul, R&B) [CD] VA - Luxury Soul 2015 (3CD) - 2015, FLAC (tracks+.cue), lossless

(Funk, Soul, R&B) [CD] VA - Luxury Soul 2015 (3CD) - 2015, FLAC (tracks+.cue), lossless
Треклист:
Various - Luxury Soul 2015 (3CD)

Жанр: Funk, Soul, R&B | Носитель: CD
Год издания: 2015 | Издатель (лейбл): Expansion Records | Номер по каталогу: CDB EXP15
Аудиокодек: FLAC (*.flac) | Тип рипа: tracks+.cue | Битрейт аудио: lossless
Продолжительность: 54:32 / 56:54 / 54:20 | Rip by JET 1
Наличие сканов в содержимом раздачи: да 
 
 
Disc 1
Треклист:
01. Don't Delay (Glen Goldsmith) (4:49)
02. Home In A Minute (Calvin Richardson) (5:33)
03. Because You Love Me (Shirley Jones) (3:58)
04. Here I Go Again (Butch & Rhonda Coleman) (4:29)
05. Dondi (Ed Motta) (5:30)
06. Abraco Da Bossa (Incognito Lounge Mix) (Guida De Palma & Jazzinho) (5:22)
07. Think About Why (Jarrod Lawson) (5:12)
08. Games We Play (In Love) (Zed Soul feat. Chris Ballin) (3:52)
09. I Promise (M.O.N.E.Y.) (Angela Johnson feat. Raul Midon) (3:52)
10. Pill (Eric Roberson) (3:30)
11. It's All About You (Marc Staggers) (3:39)
12. Feel (Victor Haynes) (4:47)
 
 
Лог создания рипа
Exact Audio Copy V1.0 beta 3 from 29. August 2011
EAC extraction logfile from 27. April 2015, 23:17
Various Artists / Luxury Soul 2015
Used drive : GENERIC CDRCB05 Adapter: 4 ID: 0
Read mode : Secure
Utilize accurate stream : Yes
Defeat audio cache : Yes
Make use of C2 pointers : No
Read offset correction : 102
Overread into Lead-In and Lead-Out : No
Fill up missing offset samples with silence : Yes
Delete leading and trailing silent blocks : No
Null samples used in CRC calculations : Yes
Used interface : Native Win32 interface for Win NT & 2000
Gap handling : Appended to previous track
Used output format : User Defined Encoder
Selected bitrate : 1024 kBit/s
Quality : High
Add ID3 tag : No
Command line compressor : C:\Program Files\FLAC\flac.exe
Additional command line options : -8 -V -T "ARTIST=%artist%" -T "TITLE=%title%" -T "ALBUM=%albumtitle%" -T "DATE=%year%" -T "TRACKNUMBER=%tracknr%" -T "GENRE=%genre%" -T "PERFORMER=%albuminterpret%" -T "COMPOSER=%composer%" %haslyrics%--tag-from-file=LYRICS="%lyricsfile%"%haslyrics% -T "ALBUMARTIST=%albumartist%" -T "DISCNUMBER=%cdnumber%" -T "TOTALDISCS=%totalcds%" -T "TOTALTRACKS=%numtracks%" -T "COMMENT=%comment%" %source% -o %dest%
TOC of the extracted CD
Track | Start | Length | Start sector | End sector
---------------------------------------------------------
1 | 0:00.00 | 4:49.34 | 0 | 21708
2 | 4:49.34 | 5:32.72 | 21709 | 46680
3 | 10:22.31 | 3:57.72 | 46681 | 64527
4 | 14:20.28 | 4:29.04 | 64528 | 84706
5 | 18:49.32 | 5:29.65 | 84707 | 109446
6 | 24:19.22 | 5:21.69 | 109447 | 133590
7 | 29:41.16 | 5:12.12 | 133591 | 157002
8 | 34:53.28 | 3:51.52 | 157003 | 174379
9 | 38:45.05 | 3:51.58 | 174380 | 191762
10 | 42:36.63 | 3:29.60 | 191763 | 207497
11 | 46:06.48 | 3:38.73 | 207498 | 223920
12 | 49:45.46 | 4:46.41 | 223921 | 245411
Track 1
Filename H:\0\..................00\post\Luxury Soul 2015 [3CD] (2015)\cd1\01 - Glen Goldsmith - Don't Delay.wav
Pre-gap length 0:00:02.00
Peak level 97.0 %
Extraction speed 2.4 X
Track quality 100.0 %
Test CRC E9E3BE38
Copy CRC E9E3BE38
Track not present in AccurateRip database
Copy OK
Track 2
Filename H:\0\..................00\post\Luxury Soul 2015 [3CD] (2015)\cd1\02 - Calvin Richardson - Home In A Minute.wav
Pre-gap length 0:00:01.55
Peak level 78.3 %
Extraction speed 2.5 X
Track quality 99.9 %
Test CRC 556EDDE5
Copy CRC 556EDDE5
Track not present in AccurateRip database
Copy OK
Track 3
Filename H:\0\..................00\post\Luxury Soul 2015 [3CD] (2015)\cd1\03 - Shirley Jones - Because You Love Me.wav
Pre-gap length 0:00:01.55
Peak level 84.5 %
Extraction speed 2.9 X
Track quality 100.0 %
Test CRC 3D0D6110
Copy CRC 3D0D6110
Track not present in AccurateRip database
Copy OK
Track 4
Filename H:\0\..................00\post\Luxury Soul 2015 [3CD] (2015)\cd1\04 - Butch & Rhonda Coleman - Here I Go Again.wav
Pre-gap length 0:00:01.55
Peak level 97.0 %
Extraction speed 3.2 X
Track quality 100.0 %
Test CRC 2F2ADCD6
Copy CRC 2F2ADCD6
Track not present in AccurateRip database
Copy OK
Track 5
Filename H:\0\..................00\post\Luxury Soul 2015 [3CD] (2015)\cd1\05 - Ed Motta - Dondi.wav
Pre-gap length 0:00:01.55
Peak level 90.1 %
Extraction speed 3.4 X
Track quality 100.0 %
Test CRC E9EDADAA
Copy CRC E9EDADAA
Track not present in AccurateRip database
Copy OK
Track 6
Filename H:\0\..................00\post\Luxury Soul 2015 [3CD] (2015)\cd1\06 - Guida De Palma & Jazzinho - Abraco Da Bossa (Incognito Lounge Mix).wav
Pre-gap length 0:00:01.55
Peak level 90.1 %
Extraction speed 3.7 X
Track quality 100.0 %
Test CRC D56CC3DB
Copy CRC D56CC3DB
Track not present in AccurateRip database
Copy OK
Track 7
Filename H:\0\..................00\post\Luxury Soul 2015 [3CD] (2015)\cd1\07 - Jarrod Lawson - Think About Why.wav
Pre-gap length 0:00:01.55
Peak level 99.6 %
Extraction speed 3.9 X
Track quality 100.0 %
Test CRC 700057E3
Copy CRC 700057E3
Track not present in AccurateRip database
Copy OK
Track 8
Filename H:\0\..................00\post\Luxury Soul 2015 [3CD] (2015)\cd1\08 - Zed Soul feat. Chris Ballin - Games We Play (In Love).wav
Pre-gap length 0:00:01.55
Peak level 86.1 %
Extraction speed 3.8 X
Track quality 100.0 %
Test CRC D59069EB
Copy CRC D59069EB
Track not present in AccurateRip database
Copy OK
Track 9
Filename H:\0\..................00\post\Luxury Soul 2015 [3CD] (2015)\cd1\09 - Angela Johnson feat. Raul Midon - I Promise (M.O.N.E.Y.).wav
Pre-gap length 0:00:01.55
Peak level 71.6 %
Extraction speed 4.0 X
Track quality 100.0 %
Test CRC A481DC47
Copy CRC A481DC47
Track not present in AccurateRip database
Copy OK
Track 10
Filename H:\0\..................00\post\Luxury Soul 2015 [3CD] (2015)\cd1\10 - Eric Roberson - Pill.wav
Pre-gap length 0:00:01.55
Peak level 87.0 %
Extraction speed 3.5 X
Track quality 99.9 %
Test CRC 405BE716
Copy CRC 405BE716
Track not present in AccurateRip database
Copy OK
Track 11
Filename H:\0\..................00\post\Luxury Soul 2015 [3CD] (2015)\cd1\11 - Marc Staggers - It's All About You.wav
Pre-gap length 0:00:01.55
Peak level 97.0 %
Extraction speed 4.2 X
Track quality 100.0 %
Test CRC BAA1DCC8
Copy CRC BAA1DCC8
Track not present in AccurateRip database
Copy OK
Track 12
Filename H:\0\..................00\post\Luxury Soul 2015 [3CD] (2015)\cd1\12 - Victor Haynes - Feel.wav
Pre-gap length 0:00:01.55
Peak level 64.5 %
Extraction speed 4.5 X
Track quality 100.0 %
Test CRC 4B8E3181
Copy CRC 4B8E3181
Track not present in AccurateRip database
Copy OK
None of the tracks are present in the AccurateRip database
No errors occurred
End of status report
==== Log checksum D5E56157DDC7020F392EF3F01009B2007D2A1BEC1EE821D8E8E06E4550928AEA ====
 
Содержание индексной карты (.CUE)
REM GENRE Soul
REM DATE 2015
REM DISCID B20CC80C
REM COMMENT "ExactAudioCopy v1.0b3"
PERFORMER "Various"
TITLE "Various - Luxury Soul 2015 (disc 1)"
FILE "01 - Glen Goldsmith - Don't Delay.wav" WAVE
TRACK 01 AUDIO
TITLE "Don't Delay"
PERFORMER "Glen Goldsmith"
INDEX 01 00:00:00
TRACK 02 AUDIO
TITLE "Home In A Minute"
PERFORMER "Calvin Richardson"
INDEX 00 04:47:54
FILE "02 - Calvin Richardson - Home In A Minute.wav" WAVE
INDEX 01 00:00:00
TRACK 03 AUDIO
TITLE "Because You Love Me"
PERFORMER "Shirley Jones"
INDEX 00 05:31:17
FILE "03 - Shirley Jones - Because You Love Me.wav" WAVE
INDEX 01 00:00:00
TRACK 04 AUDIO
TITLE "Here I Go Again"
PERFORMER "Butch & Rhonda Coleman"
INDEX 00 03:56:17
FILE "04 - Butch & Rhonda Coleman - Here I Go Again.wav" WAVE
INDEX 01 00:00:00
TRACK 05 AUDIO
TITLE "Dondi"
PERFORMER "Ed Motta"
INDEX 00 04:27:24
FILE "05 - Ed Motta - Dondi.wav" WAVE
INDEX 01 00:00:00
TRACK 06 AUDIO
TITLE "Abraco Da Bossa (Incognito Lounge Mix)"
PERFORMER "Guida De Palma & Jazzinho"
INDEX 00 05:28:10
FILE "06 - Guida De Palma & Jazzinho - Abraco Da Bossa (Incognito Lounge Mix).wav" WAVE
INDEX 01 00:00:00
TRACK 07 AUDIO
TITLE "Think About Why"
PERFORMER "Jarrod Lawson"
INDEX 00 05:20:14
FILE "07 - Jarrod Lawson - Think About Why.wav" WAVE
INDEX 01 00:00:00
TRACK 08 AUDIO
TITLE "Games We Play (In Love)"
PERFORMER "Zed Soul feat. Chris Ballin"
INDEX 00 05:10:32
FILE "08 - Zed Soul feat. Chris Ballin - Games We Play (In Love).wav" WAVE
INDEX 01 00:00:00
TRACK 09 AUDIO
TITLE "I Promise (M.O.N.E.Y.)"
PERFORMER "Angela Johnson feat. Raul Midon"
INDEX 00 03:49:72
FILE "09 - Angela Johnson feat. Raul Midon - I Promise (M.O.N.E.Y.).wav" WAVE
INDEX 01 00:00:00
TRACK 10 AUDIO
TITLE "Pill"
PERFORMER "Eric Roberson"
INDEX 00 03:50:03
FILE "10 - Eric Roberson - Pill.wav" WAVE
INDEX 01 00:00:00
TRACK 11 AUDIO
TITLE "It's All About You"
PERFORMER "Marc Staggers"
INDEX 00 03:28:05
FILE "11 - Marc Staggers - It's All About You.wav" WAVE
INDEX 01 00:00:00
TRACK 12 AUDIO
TITLE "Feel"
PERFORMER "Victor Haynes"
INDEX 00 03:37:18
FILE "12 - Victor Haynes - Feel.wav" WAVE
INDEX 01 00:00:00
 
Disc 2
Треклист:
01. The Way You Love (6:11)
02. You (3:58)
03. Just Can't Give You Up (5:13)
04. Party People (5:44)
05. Philly Line (5:31)
06. Give Into The Night (4:21)
07. Your Smile (5:01)
08. Move (Yeah Yeah) (5:10)
09. Luther (5:27)
10. Put A Different Spin On It (6:36)
11. Struggling (3:44)
 
 
Лог создания рипа
Exact Audio Copy V1.0 beta 3 from 29. August 2011
EAC extraction logfile from 28. April 2015, 1:13
Various Artists / Luxury Soul 2015
Used drive : GENERIC CDRCB05 Adapter: 4 ID: 0
Read mode : Secure
Utilize accurate stream : Yes
Defeat audio cache : Yes
Make use of C2 pointers : No
Read offset correction : 102
Overread into Lead-In and Lead-Out : No
Fill up missing offset samples with silence : Yes
Delete leading and trailing silent blocks : No
Null samples used in CRC calculations : Yes
Used interface : Native Win32 interface for Win NT & 2000
Gap handling : Appended to previous track
Used output format : User Defined Encoder
Selected bitrate : 1024 kBit/s
Quality : High
Add ID3 tag : No
Command line compressor : C:\Program Files\FLAC\flac.exe
Additional command line options : -8 -V -T "ARTIST=%artist%" -T "TITLE=%title%" -T "ALBUM=%albumtitle%" -T "DATE=%year%" -T "TRACKNUMBER=%tracknr%" -T "GENRE=%genre%" -T "PERFORMER=%albuminterpret%" -T "COMPOSER=%composer%" %haslyrics%--tag-from-file=LYRICS="%lyricsfile%"%haslyrics% -T "ALBUMARTIST=%albumartist%" -T "DISCNUMBER=%cdnumber%" -T "TOTALDISCS=%totalcds%" -T "TOTALTRACKS=%numtracks%" -T "COMMENT=%comment%" %source% -o %dest%
TOC of the extracted CD
Track | Start | Length | Start sector | End sector
---------------------------------------------------------
1 | 0:00.00 | 6:11.06 | 0 | 27830
2 | 6:11.06 | 3:57.50 | 27831 | 45655
3 | 10:08.56 | 5:13.27 | 45656 | 69157
4 | 15:22.08 | 5:44.37 | 69158 | 94994
5 | 21:06.45 | 5:30.58 | 94995 | 119802
6 | 26:37.28 | 4:20.42 | 119803 | 139344
7 | 30:57.70 | 5:00.57 | 139345 | 161901
8 | 35:58.52 | 5:09.55 | 161902 | 185131
9 | 41:08.32 | 5:26.41 | 185132 | 209622
10 | 46:34.73 | 6:35.47 | 209623 | 239294
11 | 53:10.45 | 3:43.51 | 239295 | 256070
Track 1
Filename H:\0\..................00\post\Luxury Soul 2015 [3CD] (2015)\cd2\01 - Incognito - The Way You Love.wav
Pre-gap length 0:00:02.00
Peak level 96.0 %
Extraction speed 1.5 X
Track quality 100.0 %
Test CRC C64FF85B
Copy CRC C64FF85B
Track not present in AccurateRip database
Copy OK
Track 2
Filename H:\0\..................00\post\Luxury Soul 2015 [3CD] (2015)\cd2\02 - Soul Talk - You.wav
Pre-gap length 0:00:01.55
Peak level 96.0 %
Extraction speed 1.6 X
Track quality 100.0 %
Test CRC 23418A4C
Copy CRC 23418A4C
Track not present in AccurateRip database
Copy OK
Track 3
Filename H:\0\..................00\post\Luxury Soul 2015 [3CD] (2015)\cd2\03 - Diplomats Of Soul - Just Can't Give You Up.wav
Pre-gap length 0:00:01.55
Peak level 89.6 %
Extraction speed 1.6 X
Track quality 99.9 %
Test CRC 45CC143B
Copy CRC 45CC143B
Track not present in AccurateRip database
Copy OK
Track 4
Filename H:\0\..................00\post\Luxury Soul 2015 [3CD] (2015)\cd2\04 - Tom Glide Ft. Joe Leavy - Party People.wav
Pre-gap length 0:00:01.55
Peak level 97.6 %
Extraction speed 2.0 X
Track quality 100.0 %
Test CRC 995A93C6
Copy CRC 995A93C6
Track not present in AccurateRip database
Copy OK
Track 5
Filename H:\0\..................00\post\Luxury Soul 2015 [3CD] (2015)\cd2\05 - Soulutions - Philly Line.wav
Pre-gap length 0:00:01.55
Peak level 96.0 %
Extraction speed 2.2 X
Track quality 100.0 %
Test CRC D3E3B5E0
Copy CRC D3E3B5E0
Track not present in AccurateRip database
Copy OK
Track 6
Filename H:\0\..................00\post\Luxury Soul 2015 [3CD] (2015)\cd2\06 - Personal Life - Give Into The Night.wav
Pre-gap length 0:00:01.55
Peak level 98.7 %
Extraction speed 2.2 X
Track quality 100.0 %
Test CRC 7F0DFB91
Copy CRC 7F0DFB91
Track not present in AccurateRip database
Copy OK
Track 7
Filename H:\0\..................00\post\Luxury Soul 2015 [3CD] (2015)\cd2\07 - Neo Ft. Drizabone - Your Smile.wav
Pre-gap length 0:00:01.55
Peak level 96.0 %
Extraction speed 2.2 X
Track quality 99.9 %
Test CRC B22DEB1F
Copy CRC B22DEB1F
Track not present in AccurateRip database
Copy OK
Track 8
Filename H:\0\..................00\post\Luxury Soul 2015 [3CD] (2015)\cd2\08 - Muzart - Move (Yeah Yeah).wav
Pre-gap length 0:00:01.55
Peak level 95.9 %
Extraction speed 2.3 X
Track quality 99.9 %
Test CRC 7C81A412
Copy CRC 7C81A412
Track not present in AccurateRip database
Copy OK
Track 9
Filename H:\0\..................00\post\Luxury Soul 2015 [3CD] (2015)\cd2\09 - Real - Luther.wav
Pre-gap length 0:00:01.55
Peak level 74.8 %
Extraction speed 2.7 X
Track quality 100.0 %
Test CRC FFB3D289
Copy CRC FFB3D289
Track not present in AccurateRip database
Copy OK
Track 10
Filename H:\0\..................00\post\Luxury Soul 2015 [3CD] (2015)\cd2\10 - Down To The Bone - Put A Different Spin On It.wav
Pre-gap length 0:00:01.55
Peak level 96.0 %
Extraction speed 2.9 X
Track quality 100.0 %
Test CRC 41AC6AD0
Copy CRC 41AC6AD0
Track not present in AccurateRip database
Copy OK
Track 11
Filename H:\0\..................00\post\Luxury Soul 2015 [3CD] (2015)\cd2\11 - Imaani - Struggling.wav
Pre-gap length 0:00:01.55
Peak level 94.0 %
Extraction speed 2.8 X
Track quality 100.0 %
Test CRC 2556139A
Copy CRC 2556139A
Track not present in AccurateRip database
Copy OK
None of the tracks are present in the AccurateRip database
No errors occurred
End of status report
==== Log checksum 733B1C943C2736A636A8F4243D12372236E3FCF52EF49DBE56437D09412B9E36 ====
 
Содержание индексной карты (.CUE)
REM GENRE Soul
REM DATE 2015
REM DISCID A20D560B
REM COMMENT "ExactAudioCopy v1.0b3"
PERFORMER "Various"
TITLE "Luxury Soul 2015 (disc 2)"
FILE "01 - Incognito - The Way You Love.wav" WAVE
TRACK 01 AUDIO
TITLE "The Way You Love"
PERFORMER "Incognito"
INDEX 01 00:00:00
TRACK 02 AUDIO
TITLE "You"
PERFORMER "Soul Talk"
INDEX 00 06:09:26
FILE "02 - Soul Talk - You.wav" WAVE
INDEX 01 00:00:00
TRACK 03 AUDIO
TITLE "Just Can't Give You Up"
PERFORMER "Diplomats Of Soul"
INDEX 00 03:55:70
FILE "03 - Diplomats Of Soul - Just Can't Give You Up.wav" WAVE
INDEX 01 00:00:00
TRACK 04 AUDIO
TITLE "Party People"
PERFORMER "Tom Glide Ft. Joe Leavy"
INDEX 00 05:11:47
FILE "04 - Tom Glide Ft. Joe Leavy - Party People.wav" WAVE
INDEX 01 00:00:00
TRACK 05 AUDIO
TITLE "Philly Line"
PERFORMER "Soulutions"
INDEX 00 05:42:57
FILE "05 - Soulutions - Philly Line.wav" WAVE
INDEX 01 00:00:00
TRACK 06 AUDIO
TITLE "Give Into The Night"
PERFORMER "Personal Life"
INDEX 00 05:29:03
FILE "06 - Personal Life - Give Into The Night.wav" WAVE
INDEX 01 00:00:00
TRACK 07 AUDIO
TITLE "Your Smile"
PERFORMER "Neo Ft. Drizabone"
INDEX 00 04:18:62
FILE "07 - Neo Ft. Drizabone - Your Smile.wav" WAVE
INDEX 01 00:00:00
TRACK 08 AUDIO
TITLE "Move (Yeah Yeah)"
PERFORMER "Muzart"
INDEX 00 04:59:02
FILE "08 - Muzart - Move (Yeah Yeah).wav" WAVE
INDEX 01 00:00:00
TRACK 09 AUDIO
TITLE "Luther"
PERFORMER "Real"
INDEX 00 05:08:00
FILE "09 - Real - Luther.wav" WAVE
INDEX 01 00:00:00
TRACK 10 AUDIO
TITLE "Put A Different Spin On It"
PERFORMER "Down To The Bone"
INDEX 00 05:24:61
FILE "10 - Down To The Bone - Put A Different Spin On It.wav" WAVE
INDEX 01 00:00:00
TRACK 11 AUDIO
TITLE "Struggling"
PERFORMER "Imaani"
INDEX 00 06:33:67
FILE "11 - Imaani - Struggling.wav" WAVE
INDEX 01 00:00:00
 
Disc 3
Треклист:
01. Come On Over (5:25)
02. Cleverly (4:48)
03. What Took You So Long (3:44)
04. Perfect Love Affair (3:57)
05. The Best (4:19)
06. Someone Else (4:35)
07. 2 Words (3:52)
08. It's Just Like Love (4:18)
09. Indigenous Love (5:34)
10. With Me (5:26)
11. Time Out Of Time (4:21)
12. Midnight (4:02)
 
 
Лог создания рипа
Exact Audio Copy V1.0 beta 3 from 29. August 2011
EAC extraction logfile from 28. April 2015, 3:54
Various Artists / Luxury Soul 2015
Used drive : GENERIC CDRCB05 Adapter: 4 ID: 0
Read mode : Secure
Utilize accurate stream : Yes
Defeat audio cache : Yes
Make use of C2 pointers : No
Read offset correction : 102
Overread into Lead-In and Lead-Out : No
Fill up missing offset samples with silence : Yes
Delete leading and trailing silent blocks : No
Null samples used in CRC calculations : Yes
Used interface : Native Win32 interface for Win NT & 2000
Gap handling : Appended to previous track
Used output format : User Defined Encoder
Selected bitrate : 1024 kBit/s
Quality : High
Add ID3 tag : No
Command line compressor : C:\Program Files\FLAC\flac.exe
Additional command line options : -8 -V -T "ARTIST=%artist%" -T "TITLE=%title%" -T "ALBUM=%albumtitle%" -T "DATE=%year%" -T "TRACKNUMBER=%tracknr%" -T "GENRE=%genre%" -T "PERFORMER=%albuminterpret%" -T "COMPOSER=%composer%" %haslyrics%--tag-from-file=LYRICS="%lyricsfile%"%haslyrics% -T "ALBUMARTIST=%albumartist%" -T "DISCNUMBER=%cdnumber%" -T "TOTALDISCS=%totalcds%" -T "TOTALTRACKS=%numtracks%" -T "COMMENT=%comment%" %source% -o %dest%
TOC of the extracted CD
Track | Start | Length | Start sector | End sector
---------------------------------------------------------
1 | 0:00.00 | 5:25.17 | 0 | 24391
2 | 5:25.17 | 4:48.34 | 24392 | 46025
3 | 10:13.51 | 3:44.30 | 46026 | 62855
4 | 13:58.06 | 3:56.46 | 62856 | 80601
5 | 17:54.52 | 4:18.69 | 80602 | 100020
6 | 22:13.46 | 4:34.65 | 100021 | 120635
7 | 26:48.36 | 3:51.50 | 120636 | 138010
8 | 30:40.11 | 4:17.70 | 138011 | 157355
9 | 34:58.06 | 5:33.52 | 157356 | 182382
10 | 40:31.58 | 5:25.38 | 182383 | 206795
11 | 45:57.21 | 4:20.45 | 206796 | 226340
12 | 50:17.66 | 4:02.17 | 226341 | 244507
Track 1
Filename H:\0\..................00\post\Luxury Soul 2015 [3CD] (2015)\cd3\01 - Gary Foote - Come On Over.wav
Pre-gap length 0:00:02.00
Peak level 96.8 %
Extraction speed 1.5 X
Track quality 100.0 %
Test CRC 91AAA0F8
Copy CRC 91AAA0F8
Track not present in AccurateRip database
Copy OK
Track 2
Filename H:\0\..................00\post\Luxury Soul 2015 [3CD] (2015)\cd3\02 - Dasha Ft. Paul - Cleverly.wav
Pre-gap length 0:00:01.55
Peak level 96.0 %
Extraction speed 1.6 X
Track quality 100.0 %
Test CRC CDC6F98D
Copy CRC CDC6F98D
Track not present in AccurateRip database
Copy OK
Track 3
Filename H:\0\..................00\post\Luxury Soul 2015 [3CD] (2015)\cd3\03 - Tyrone Lee - What Took You So Long.wav
Pre-gap length 0:00:01.55
Peak level 92.2 %
Extraction speed 1.5 X
Track quality 99.9 %
Test CRC 9659B841
Copy CRC 9659B841
Track not present in AccurateRip database
Copy OK
Track 4
Filename H:\0\..................00\post\Luxury Soul 2015 [3CD] (2015)\cd3\04 - Shaun Escoffery - Perfect Love Affair.wav
Pre-gap length 0:00:01.55
Peak level 96.0 %
Extraction speed 1.9 X
Track quality 100.0 %
Test CRC 3BD2CB9D
Copy CRC 3BD2CB9D
Track not present in AccurateRip database
Copy OK
Track 5
Filename H:\0\..................00\post\Luxury Soul 2015 [3CD] (2015)\cd3\05 - Latrese Bush - The Best.wav
Pre-gap length 0:00:01.55
Peak level 100.0 %
Extraction speed 2.0 X
Track quality 100.0 %
Test CRC 75CC4F59
Copy CRC 75CC4F59
Track not present in AccurateRip database
Copy OK
Track 6
Filename H:\0\..................00\post\Luxury Soul 2015 [3CD] (2015)\cd3\06 - C. Robert Walker - Someone Else.wav
Pre-gap length 0:00:01.55
Peak level 97.7 %
Extraction speed 1.9 X
Track quality 99.9 %
Test CRC 9E982002
Copy CRC 9E982002
Track not present in AccurateRip database
Copy OK
Track 7
Filename H:\0\..................00\post\Luxury Soul 2015 [3CD] (2015)\cd3\07 - Kindred The Family Soul - 2 Words.wav
Pre-gap length 0:00:01.55
Peak level 91.4 %
Extraction speed 2.2 X
Track quality 100.0 %
Test CRC BE5F1A38
Copy CRC BE5F1A38
Track not present in AccurateRip database
Copy OK
Track 8
Filename H:\0\..................00\post\Luxury Soul 2015 [3CD] (2015)\cd3\08 - Sheree Brown - It's Just Like Love.wav
Pre-gap length 0:00:01.55
Peak level 99.1 %
Extraction speed 2.1 X
Track quality 99.9 %
Test CRC 4B7344A1
Copy CRC 4B7344A1
Track not present in AccurateRip database
Copy OK
Track 9
Filename H:\0\..................00\post\Luxury Soul 2015 [3CD] (2015)\cd3\09 - Keni Burke - Indigenous Love.wav
Pre-gap length 0:00:01.55
Peak level 93.3 %
Extraction speed 2.6 X
Track quality 100.0 %
Test CRC B9B5B553
Copy CRC B9B5B553
Track not present in AccurateRip database
Copy OK
Track 10
Filename H:\0\..................00\post\Luxury Soul 2015 [3CD] (2015)\cd3\10 - Kloud 9 - With Me.wav
Pre-gap length 0:00:01.55
Peak level 95.5 %
Extraction speed 2.7 X
Track quality 100.0 %
Test CRC C25FB375
Copy CRC C25FB375
Track not present in AccurateRip database
Copy OK
Track 11
Filename H:\0\..................00\post\Luxury Soul 2015 [3CD] (2015)\cd3\11 - Dira - Time Out Of Time.wav
Pre-gap length 0:00:01.55
Peak level 98.6 %
Extraction speed 2.4 X
Track quality 99.9 %
Test CRC AFBDE25D
Copy CRC AFBDE25D
Track not present in AccurateRip database
Copy OK
Track 12
Filename H:\0\..................00\post\Luxury Soul 2015 [3CD] (2015)\cd3\12 - Adriana Evans - Midnight.wav
Pre-gap length 0:00:01.55
Peak level 89.1 %
Extraction speed 2.8 X
Track quality 100.0 %
Test CRC 053B0DB8
Copy CRC 053B0DB8
Track not present in AccurateRip database
Copy OK
None of the tracks are present in the AccurateRip database
No errors occurred
End of status report
==== Log checksum 51C1D0DF2FC853C57B4BC6F7763B2A0235BC24AC1E50B977E8EF1E60D1992716 ====
 
Содержание индексной карты (.CUE)
REM DATE 2015
REM GENRE Soul
REM DISCID 8A0CBC0C
REM COMMENT "ExactAudioCopy v1.0b3"
PERFORMER "Various"
TITLE "Luxury Soul 2015 (disc 3)"
FILE "01 - Gary Foote - Come On Over.wav" WAVE
TRACK 01 AUDIO
TITLE "Come On Over"
PERFORMER "Gary Foote"
INDEX 01 00:00:00
TRACK 02 AUDIO
TITLE "Cleverly"
PERFORMER "Dasha Ft. Paul "
INDEX 00 05:23:37
FILE "02 - Dasha Ft. Paul - Cleverly.wav" WAVE
INDEX 01 00:00:00
TRACK 03 AUDIO
TITLE "What Took You So Long"
PERFORMER "Tyrone Lee"
INDEX 00 04:46:54
FILE "03 - Tyrone Lee - What Took You So Long.wav" WAVE
INDEX 01 00:00:00
TRACK 04 AUDIO
TITLE "Perfect Love Affair"
PERFORMER "Shaun Escoffery"
INDEX 00 03:42:50
FILE "04 - Shaun Escoffery - Perfect Love Affair.wav" WAVE
INDEX 01 00:00:00
TRACK 05 AUDIO
TITLE "The Best"
PERFORMER "Latrese Bush"
INDEX 00 03:54:66
FILE "05 - Latrese Bush - The Best.wav" WAVE
INDEX 01 00:00:00
TRACK 06 AUDIO
TITLE "Someone Else"
PERFORMER "C. Robert Walker"
INDEX 00 04:17:14
FILE "06 - C. Robert Walker - Someone Else.wav" WAVE
INDEX 01 00:00:00
TRACK 07 AUDIO
TITLE "2 Words"
PERFORMER "Kindred The Family Soul"
INDEX 00 04:33:10
FILE "07 - Kindred The Family Soul - 2 Words.wav" WAVE
INDEX 01 00:00:00
TRACK 08 AUDIO
TITLE "It's Just Like Love"
PERFORMER "Sheree Brown"
INDEX 00 03:49:70
FILE "08 - Sheree Brown - It's Just Like Love.wav" WAVE
INDEX 01 00:00:00
TRACK 09 AUDIO
TITLE "Indigenous Love"
PERFORMER "Keni Burke"
INDEX 00 04:16:15
FILE "09 - Keni Burke - Indigenous Love.wav" WAVE
INDEX 01 00:00:00
TRACK 10 AUDIO
TITLE "With Me"
PERFORMER "Kloud 9"
INDEX 00 05:31:72
FILE "10 - Kloud 9 - With Me.wav" WAVE
INDEX 01 00:00:00
TRACK 11 AUDIO
TITLE "Time Out Of Time"
PERFORMER "Dira"
INDEX 00 05:23:58
FILE "11 - Dira - Time Out Of Time.wav" WAVE
INDEX 01 00:00:00
TRACK 12 AUDIO
TITLE "Midnight"
PERFORMER "Adriana Evans"
INDEX 00 04:18:65
FILE "12 - Adriana Evans - Midnight.wav" WAVE
INDEX 01 00:00:00
Приватный:
Нет (DHT включён)
Размер:
1.13 Гб (1,213,792,268 байт) » файлов: 55
Участники:
0 раздают, 0 качают (0 участников всего)
Внешние участники:
3 раздают, 1 качают (4 участников всего) [ Обновить ]
Есть вопросы - пишите личное сообщение пользователю M0p94ok.
07:02
86
Нет комментариев. Ваш будет первым!