Поиск

(Funk, Soul) Edwin Starr - Soul Master & 25 Miles (016 839-2) - 1968-1969 (re 2002), FLAC (tracks+.cue), lossless

(Funk, Soul) Edwin Starr - Soul Master & 25 Miles (016 839-2) - 1968-1969 (re 2002), FLAC (tracks+.cue), lossless
Треклист:
Edwin Starr - Soul Master & 25 Miles
Жанр: Funk, Soul
Год выпуска диска: 1968-1969 (remaster 2002)
Аудио кодек: FLAC
Тип рипа: tracks+.cue
Битрейт аудио: lossless
Продолжительность: 00:74:39

Soul Master
1. Edwin Starr - Agent Double-O Soul (2:47)
2. Edwin Starr - I Am The Man For You Baby (2:46)
3. Edwin Starr - Stop Her On Sight (S.O.S.) (2:22)
4. Edwin Starr - Oh How Happy (2:39)
5. Edwin Starr - Way Over There (2:47)
6. Edwin Starr - My Weakness Is You (2:38)
7. Edwin Starr - Headline News (2:36)
8. Edwin Starr - Soul Master (3:22)
9. Edwin Starr - I Want My Baby Back (2:40)
10. Edwin Starr - Love Is My Destination (2:57)
11. Edwin Starr - I Am Your Man (3:15)
12. Edwin Starr - Time Is Passin' By (2:58)
25 Miles
13. Edwin Starr - Twenty-Five Miles (3:22)
14. Edwin Starr - I'm Still A Struggling Man (2:26)
15. Edwin Starr - Backyard Lovin' Man (2:57)
16. Edwin Starr - He Who Picks A Rose (2:35)
17. Edwin Starr - Soul City (Open Your Arms To Me) (2:46)
18. Edwin Starr - You Beat Me To The Punch (2:38)
19. Edwin Starr - Gonna Keep On Tryin' Till I Win Your Love (2:51)
20. Edwin Starr - Pretty Little Angel (2:17)
21. Edwin Starr - If My Heart Could Tell The Story (2:34)
22. Edwin Starr - Who Cares If You're Happy Or Not (I Do) (2:54)
23. Edwin Starr - 24 Hours (To Find My Baby) (2:47)
24. Edwin Starr - Mighty Good Lovin' (2:50)
25. Edwin Starr - Harlem (2:22)
26. Edwin Starr - Girls Are Gettin' Prettier (2:39)
27. Edwin Starr - It's My Turn Now (2:54)
Собственноручный рип с оригинального диска от funky_cat!
Дорогое и редкое издание великолепной музыки))
 
Log EAC
Exact Audio Copy V0.99 prebeta 5 from 4. May 2009
EAC extraction logfile from 8. March 2010, 16:42
Edwin Starr / Soul Master & 25 Miles
Used drive : ASUS DRW-1608P2 Adapter: 0 ID: 0
Read mode : Secure
Utilize accurate stream : Yes
Defeat audio cache : Yes
Make use of C2 pointers : No
Read offset correction : 48
Overread into Lead-In and Lead-Out : No
Fill up missing offset samples with silence : Yes
Delete leading and trailing silent blocks : No
Null samples used in CRC calculations : Yes
Used interface : Native Win32 interface for Win NT & 2000
Gap handling : Appended to previous track
Used output format : User Defined Encoder
Selected bitrate : 320 kBit/s
Quality : High
Add ID3 tag : No
Command line compressor : C:\Program Files\FLAC\flac.exe
Additional command line options : -5 -V -T "ARTIST=%a" -T "TITLE=%t" -T "ALBUM=%g" -T "DATE=%y" -T "TRACKNUMBER=%n" -T "GENRE=%m" -T "COMMENT=Ripped By andygrakoff aka yetiisyou" %s
TOC of the extracted CD
Track | Start | Length | Start sector | End sector
---------------------------------------------------------
1 | 0:00.00 | 2:47.33 | 0 | 12557
2 | 2:47.33 | 2:46.42 | 12558 | 25049
3 | 5:34.00 | 2:22.53 | 25050 | 35752
4 | 7:56.53 | 2:39.42 | 35753 | 47719
5 | 10:36.20 | 2:47.00 | 47720 | 60244
6 | 13:23.20 | 2:38.33 | 60245 | 72127
7 | 16:01.53 | 2:36.45 | 72128 | 83872
8 | 18:38.23 | 3:22.26 | 83873 | 99048
9 | 22:00.49 | 2:40.73 | 99049 | 111121
10 | 24:41.47 | 2:57.42 | 111122 | 124438
11 | 27:39.14 | 3:15.44 | 124439 | 139107
12 | 30:54.58 | 2:58.30 | 139108 | 152487
13 | 33:53.13 | 3:22.62 | 152488 | 167699
14 | 37:16.00 | 2:26.59 | 167700 | 178708
15 | 39:42.59 | 2:57.36 | 178709 | 192019
16 | 42:40.20 | 2:35.23 | 192020 | 203667
17 | 45:15.43 | 2:46.17 | 203668 | 216134
18 | 48:01.60 | 2:38.15 | 216135 | 227999
19 | 50:40.00 | 2:51.62 | 228000 | 240886
20 | 53:31.62 | 2:17.50 | 240887 | 251211
21 | 55:49.37 | 2:34.48 | 251212 | 262809
22 | 58:24.10 | 2:54.15 | 262810 | 275874
23 | 61:18.25 | 2:47.53 | 275875 | 288452
24 | 64:06.03 | 2:50.17 | 288453 | 301219
25 | 66:56.20 | 2:22.60 | 301220 | 311929
26 | 69:19.05 | 2:39.53 | 311930 | 323907
27 | 71:58.58 | 2:54.74 | 323908 | 337031
Track 1
Filename E:\!Rips\FUNK @ SOUL\Edwin Starr - Soul Master & 25 Miles (016 839-2)\01 – Agent Double-O Soul.wav
Pre-gap length 0:00:02.00
Peak level 89.1 %
Track quality 100.0 %
Test CRC 1C987D76
Copy CRC 1C987D76
Accurately ripped (confidence 1) [EE6C4A14]
Copy OK
Track 2
Filename E:\!Rips\FUNK @ SOUL\Edwin Starr - Soul Master & 25 Miles (016 839-2)\02 – I Am The Man For You Baby.wav
Pre-gap length 0:00:04.56
Peak level 99.9 %
Track quality 100.0 %
Test CRC 98586BA6
Copy CRC 98586BA6
Accurately ripped (confidence 1) [FC35D805]
Copy OK
Track 3
Filename E:\!Rips\FUNK @ SOUL\Edwin Starr - Soul Master & 25 Miles (016 839-2)\03 – Stop Her On Sight (S.O.S.).wav
Pre-gap length 0:00:04.61
Peak level 99.9 %
Track quality 100.0 %
Test CRC B9C51146
Copy CRC B9C51146
Accurately ripped (confidence 1) [D4EEE1CA]
Copy OK
Track 4
Filename E:\!Rips\FUNK @ SOUL\Edwin Starr - Soul Master & 25 Miles (016 839-2)\04 – Oh How Happy.wav
Pre-gap length 0:00:04.60
Peak level 100.0 %
Track quality 100.0 %
Test CRC 5EDB8326
Copy CRC 5EDB8326
Accurately ripped (confidence 1) [99970200]
Copy OK
Track 5
Filename E:\!Rips\FUNK @ SOUL\Edwin Starr - Soul Master & 25 Miles (016 839-2)\05 – Way Over There.wav
Pre-gap length 0:00:04.40
Peak level 100.0 %
Track quality 100.0 %
Test CRC 70CD301D
Copy CRC 70CD301D
Accurately ripped (confidence 1) [6F330FFF]
Copy OK
Track 6
Filename E:\!Rips\FUNK @ SOUL\Edwin Starr - Soul Master & 25 Miles (016 839-2)\06 – My Weakness Is You.wav
Pre-gap length 0:00:04.58
Peak level 99.9 %
Track quality 100.0 %
Test CRC F035ECAE
Copy CRC F035ECAE
Accurately ripped (confidence 1) [D0B06485]
Copy OK
Track 7
Filename E:\!Rips\FUNK @ SOUL\Edwin Starr - Soul Master & 25 Miles (016 839-2)\07 – Headline News.wav
Pre-gap length 0:00:04.60
Peak level 100.0 %
Track quality 100.0 %
Test CRC A07D988C
Copy CRC A07D988C
Accurately ripped (confidence 1) [B0BC9365]
Copy OK
Track 8
Filename E:\!Rips\FUNK @ SOUL\Edwin Starr - Soul Master & 25 Miles (016 839-2)\08 – Soul Master.wav
Pre-gap length 0:00:04.33
Peak level 99.2 %
Track quality 100.0 %
Test CRC D523AA48
Copy CRC D523AA48
Accurately ripped (confidence 1) [5AA15395]
Copy OK
Track 9
Filename E:\!Rips\FUNK @ SOUL\Edwin Starr - Soul Master & 25 Miles (016 839-2)\09 – I Want My Baby Back.wav
Pre-gap length 0:00:03.86
Peak level 100.0 %
Track quality 100.0 %
Test CRC 0481E00F
Copy CRC 0481E00F
Accurately ripped (confidence 1) [A2603B6D]
Copy OK
Track 10
Filename E:\!Rips\FUNK @ SOUL\Edwin Starr - Soul Master & 25 Miles (016 839-2)\10 – Love Is My Destination.wav
Pre-gap length 0:00:04.57
Peak level 98.9 %
Track quality 100.0 %
Test CRC 14C5FF27
Copy CRC 14C5FF27
Accurately ripped (confidence 1) [4E731EF6]
Copy OK
Track 11
Filename E:\!Rips\FUNK @ SOUL\Edwin Starr - Soul Master & 25 Miles (016 839-2)\11 – I Am Your Man.wav
Pre-gap length 0:00:04.26
Peak level 100.0 %
Track quality 99.9 %
Test CRC 37489C3D
Copy CRC 37489C3D
Accurately ripped (confidence 1) [E83536CB]
Copy OK
Track 12
Filename E:\!Rips\FUNK @ SOUL\Edwin Starr - Soul Master & 25 Miles (016 839-2)\12 – Time Is Passin' By.wav
Pre-gap length 0:00:04.57
Peak level 100.0 %
Track quality 100.0 %
Test CRC DDFA6C98
Copy CRC DDFA6C98
Accurately ripped (confidence 1) [6125D84B]
Copy OK
Track 13
Filename E:\!Rips\FUNK @ SOUL\Edwin Starr - Soul Master & 25 Miles (016 839-2)\13 – Twenty-Five Miles.wav
Pre-gap length 0:00:05.58
Peak level 82.2 %
Track quality 100.0 %
Test CRC A7E79917
Copy CRC A7E79917
Accurately ripped (confidence 1) [05E3BCFA]
Copy OK
Track 14
Filename E:\!Rips\FUNK @ SOUL\Edwin Starr - Soul Master & 25 Miles (016 839-2)\14 – I'm Still A Struggling Man.wav
Pre-gap length 0:00:04.61
Peak level 100.0 %
Track quality 99.9 %
Test CRC 362FC5CB
Copy CRC 362FC5CB
Accurately ripped (confidence 1) [77593212]
Copy OK
Track 15
Filename E:\!Rips\FUNK @ SOUL\Edwin Starr - Soul Master & 25 Miles (016 839-2)\15 – Backyard Lovin' Man.wav
Pre-gap length 0:00:04.17
Peak level 100.0 %
Track quality 100.0 %
Test CRC 31A36C5F
Copy CRC 31A36C5F
Accurately ripped (confidence 1) [7E8C32FD]
Copy OK
Track 16
Filename E:\!Rips\FUNK @ SOUL\Edwin Starr - Soul Master & 25 Miles (016 839-2)\16 – He Who Picks A Rose.wav
Pre-gap length 0:00:04.60
Peak level 100.0 %
Track quality 100.0 %
Test CRC CD35F154
Copy CRC CD35F154
Accurately ripped (confidence 1) [05428CB8]
Copy OK
Track 17
Filename E:\!Rips\FUNK @ SOUL\Edwin Starr - Soul Master & 25 Miles (016 839-2)\17 – Soul City (Open Your Arms To Me).wav
Pre-gap length 0:00:04.60
Peak level 99.9 %
Track quality 100.0 %
Test CRC C455A3BE
Copy CRC C455A3BE
Accurately ripped (confidence 1) [51561602]
Copy OK
Track 18
Filename E:\!Rips\FUNK @ SOUL\Edwin Starr - Soul Master & 25 Miles (016 839-2)\18 – You Beat Me To The Punch.wav
Pre-gap length 0:00:04.60
Peak level 99.9 %
Track quality 100.0 %
Test CRC 7D9B6D93
Copy CRC 7D9B6D93
Accurately ripped (confidence 1) [9E429B72]
Copy OK
Track 19
Filename E:\!Rips\FUNK @ SOUL\Edwin Starr - Soul Master & 25 Miles (016 839-2)\19 – Gonna Keep On Tryin' Till I Win Your Love.wav
Pre-gap length 0:00:04.66
Peak level 99.1 %
Track quality 100.0 %
Test CRC 38F50F49
Copy CRC 38F50F49
Accurately ripped (confidence 1) [BC95BAF1]
Copy OK
Track 20
Filename E:\!Rips\FUNK @ SOUL\Edwin Starr - Soul Master & 25 Miles (016 839-2)\20 – Pretty Little Angel.wav
Pre-gap length 0:00:04.58
Peak level 100.0 %
Track quality 100.0 %
Test CRC 6D39E6FD
Copy CRC 6D39E6FD
Accurately ripped (confidence 1) [1CBC5EBA]
Copy OK
Track 21
Filename E:\!Rips\FUNK @ SOUL\Edwin Starr - Soul Master & 25 Miles (016 839-2)\21 – If My Heart Could Tell The Story.wav
Pre-gap length 0:00:04.57
Peak level 100.0 %
Track quality 100.0 %
Test CRC DA3DE662
Copy CRC DA3DE662
Accurately ripped (confidence 1) [FE3E0B42]
Copy OK
Track 22
Filename E:\!Rips\FUNK @ SOUL\Edwin Starr - Soul Master & 25 Miles (016 839-2)\22 – Who Cares If You're Happy Or Not (I Do).wav
Pre-gap length 0:00:04.57
Peak level 100.0 %
Track quality 100.0 %
Test CRC 7430E6E9
Copy CRC 7430E6E9
Accurately ripped (confidence 1) [0D1D84B9]
Copy OK
Track 23
Filename E:\!Rips\FUNK @ SOUL\Edwin Starr - Soul Master & 25 Miles (016 839-2)\23 – 24 Hours (To Find My Baby).wav
Pre-gap length 0:00:04.58
Peak level 99.9 %
Track quality 99.9 %
Test CRC A63AA810
Copy CRC A63AA810
Accurately ripped (confidence 1) [7619EB4B]
Copy OK
Track 24
Filename E:\!Rips\FUNK @ SOUL\Edwin Starr - Soul Master & 25 Miles (016 839-2)\24 – Mighty Good Lovin'.wav
Pre-gap length 0:00:04.60
Peak level 100.0 %
Track quality 100.0 %
Test CRC C9375695
Copy CRC C9375695
Accurately ripped (confidence 1) [FAA13208]
Copy OK
Track 25
Filename E:\!Rips\FUNK @ SOUL\Edwin Starr - Soul Master & 25 Miles (016 839-2)\25 – Harlem.wav
Pre-gap length 0:00:04.60
Peak level 86.3 %
Track quality 99.9 %
Test CRC 8603F617
Copy CRC 8603F617
Accurately ripped (confidence 1) [779BD0E4]
Copy OK
Track 26
Filename E:\!Rips\FUNK @ SOUL\Edwin Starr - Soul Master & 25 Miles (016 839-2)\26 – Girls Are Gettin' Prettier.wav
Pre-gap length 0:00:03.58
Peak level 88.2 %
Track quality 99.9 %
Test CRC 7D430430
Copy CRC 7D430430
Accurately ripped (confidence 1) [7F0CD074]
Copy OK
Track 27
Filename E:\!Rips\FUNK @ SOUL\Edwin Starr - Soul Master & 25 Miles (016 839-2)\27 – It's My Turn Now.wav
Pre-gap length 0:00:03.57
Peak level 84.4 %
Track quality 99.9 %
Test CRC EC10AB8D
Copy CRC EC10AB8D
Accurately ripped (confidence 1) [AD8921F3]
Copy OK
All tracks accurately ripped
No errors occurred
End of status report
 
CUE
REM DISCID 75118D1B
REM COMMENT "ExactAudioCopy v0.99pb5"
PERFORMER "Edwin Starr"
TITLE "Soul Master & 25 Miles"
FILE "01 – Agent Double-O Soul.wav" WAVE
TRACK 01 AUDIO
TITLE "Agent Double-O Soul"
PERFORMER "Edwin Starr"
INDEX 01 00:00:00
TRACK 02 AUDIO
TITLE "I Am The Man For You Baby"
PERFORMER "Edwin Starr"
INDEX 00 02:42:66
FILE "02 – I Am The Man For You Baby.wav" WAVE
INDEX 01 00:00:00
TRACK 03 AUDIO
TITLE "Stop Her On Sight (S.O.S.)"
PERFORMER "Edwin Starr"
INDEX 00 02:41:71
FILE "03 – Stop Her On Sight (S.O.S.).wav" WAVE
INDEX 01 00:00:00
TRACK 04 AUDIO
TITLE "Oh How Happy"
PERFORMER "Edwin Starr"
INDEX 00 02:18:08
FILE "04 – Oh How Happy.wav" WAVE
INDEX 01 00:00:00
TRACK 05 AUDIO
TITLE "Way Over There"
PERFORMER "Edwin Starr"
INDEX 00 02:35:12
FILE "05 – Way Over There.wav" WAVE
INDEX 01 00:00:00
TRACK 06 AUDIO
TITLE "My Weakness Is You"
PERFORMER "Edwin Starr"
INDEX 00 02:42:31
FILE "06 – My Weakness Is You.wav" WAVE
INDEX 01 00:00:00
TRACK 07 AUDIO
TITLE "Headline News"
PERFORMER "Edwin Starr"
INDEX 00 02:33:63
FILE "07 – Headline News.wav" WAVE
INDEX 01 00:00:00
TRACK 08 AUDIO
TITLE "Soul Master"
PERFORMER "Edwin Starr"
INDEX 00 02:32:20
FILE "08 – Soul Master.wav" WAVE
INDEX 01 00:00:00
TRACK 09 AUDIO
TITLE "I Want My Baby Back"
PERFORMER "Edwin Starr"
INDEX 00 03:18:36
FILE "09 – I Want My Baby Back.wav" WAVE
INDEX 01 00:00:00
TRACK 10 AUDIO
TITLE "Love Is My Destination"
PERFORMER "Edwin Starr"
INDEX 00 02:36:30
FILE "10 – Love Is My Destination.wav" WAVE
INDEX 01 00:00:00
TRACK 11 AUDIO
TITLE "I Am Your Man"
PERFORMER "Edwin Starr"
INDEX 00 02:53:22
FILE "11 – I Am Your Man.wav" WAVE
INDEX 01 00:00:00
TRACK 12 AUDIO
TITLE "Time Is Passin' By"
PERFORMER "Edwin Starr"
INDEX 00 03:11:01
FILE "12 – Time Is Passin' By.wav" WAVE
INDEX 01 00:00:00
TRACK 13 AUDIO
TITLE "Twenty-Five Miles"
PERFORMER "Edwin Starr"
INDEX 00 02:52:61
FILE "13 – Twenty-Five Miles.wav" WAVE
INDEX 01 00:00:00
TRACK 14 AUDIO
TITLE "I'm Still A Struggling Man"
PERFORMER "Edwin Starr"
INDEX 00 03:18:16
FILE "14 – I'm Still A Struggling Man.wav" WAVE
INDEX 01 00:00:00
TRACK 15 AUDIO
TITLE "Backyard Lovin' Man"
PERFORMER "Edwin Starr"
INDEX 00 02:22:46
FILE "15 – Backyard Lovin' Man.wav" WAVE
INDEX 01 00:00:00
TRACK 16 AUDIO
TITLE "He Who Picks A Rose"
PERFORMER "Edwin Starr"
INDEX 00 02:52:66
FILE "16 – He Who Picks A Rose.wav" WAVE
INDEX 01 00:00:00
TRACK 17 AUDIO
TITLE "Soul City (Open Your Arms To Me)"
PERFORMER "Edwin Starr"
INDEX 00 02:30:53
FILE "17 – Soul City (Open Your Arms To Me).wav" WAVE
INDEX 01 00:00:00
TRACK 18 AUDIO
TITLE "You Beat Me To The Punch"
PERFORMER "Edwin Starr"
INDEX 00 02:41:47
FILE "18 – You Beat Me To The Punch.wav" WAVE
INDEX 01 00:00:00
TRACK 19 AUDIO
TITLE "Gonna Keep On Tryin' Till I Win Your Love"
PERFORMER "Edwin Starr"
INDEX 00 02:33:40
FILE "19 – Gonna Keep On Tryin' Till I Win Your Love.wav" WAVE
INDEX 01 00:00:00
TRACK 20 AUDIO
TITLE "Pretty Little Angel"
PERFORMER "Edwin Starr"
INDEX 00 02:47:18
FILE "20 – Pretty Little Angel.wav" WAVE
INDEX 01 00:00:00
TRACK 21 AUDIO
TITLE "If My Heart Could Tell The Story"
PERFORMER "Edwin Starr"
INDEX 00 02:13:07
FILE "21 – If My Heart Could Tell The Story.wav" WAVE
INDEX 01 00:00:00
TRACK 22 AUDIO
TITLE "Who Cares If You're Happy Or Not (I Do)"
PERFORMER "Edwin Starr"
INDEX 00 02:30:05
FILE "22 – Who Cares If You're Happy Or Not (I Do).wav" WAVE
INDEX 01 00:00:00
TRACK 23 AUDIO
TITLE "24 Hours (To Find My Baby)"
PERFORMER "Edwin Starr"
INDEX 00 02:49:46
FILE "23 – 24 Hours (To Find My Baby).wav" WAVE
INDEX 01 00:00:00
TRACK 24 AUDIO
TITLE "Mighty Good Lovin'"
PERFORMER "Edwin Starr"
INDEX 00 02:43:08
FILE "24 – Mighty Good Lovin'.wav" WAVE
INDEX 01 00:00:00
TRACK 25 AUDIO
TITLE "Harlem"
PERFORMER "Edwin Starr"
INDEX 00 02:45:47
FILE "25 – Harlem.wav" WAVE
INDEX 01 00:00:00
TRACK 26 AUDIO
TITLE "Girls Are Gettin' Prettier"
PERFORMER "Edwin Starr"
INDEX 00 02:19:16
FILE "26 – Girls Are Gettin' Prettier.wav" WAVE
INDEX 01 00:00:00
TRACK 27 AUDIO
TITLE "It's My Turn Now"
PERFORMER "Edwin Starr"
INDEX 00 02:36:10
FILE "27 – It's My Turn Now.wav" WAVE
INDEX 01 00:00:00
Приватный:
Нет (DHT включён)
Размер:
486.55 Мб (510,180,067 байт) » файлов: 41
Участники:
0 раздают, 0 качают (0 участников всего)
Внешние участники:
3 раздают, 1 качают (4 участников всего) [ Обновить ]
Никого нет на раздаче - пишите личное сообщение M0p94ok
No seeders - write personal message to M0p94ok
03:01
18
Нет комментариев. Ваш будет первым!