Поиск

(Funk, Soul) [CD] Edwin Starr - Edwin Starr - 2001, FLAC (tracks+.cue), lossless

(Funk, Soul) [CD] Edwin Starr - Edwin Starr - 2001, FLAC (tracks+.cue), lossless
Треклист:
Edwin Starr / Edwin Starr
Жанр: Funk, Soul
Носитель: CD
Страна-производитель диска (релиза): UK
Год издания: 2001
Издатель (лейбл): Musicbank Limited
Номер по каталогу: APWCD1194
Страна исполнителя (группы): USA
Аудиокодек: FLAC (*.flac)
Тип рипа: tracks+.cue
Битрейт аудио: lossless
Продолжительность: 1:06:15.
Источник (релизер): clustert
Наличие сканов в содержимом раздачи: да
Треклист:
01. Love Train [0:03:16.09]
02. Ain't Gonna Bump No More [0:04:15.29]
03. Get Down On It [0:04:24.22]
04. Knock On Wood [0:04:01.45]
05. Mustang Sally [0:05:23.02]
06. Oops, Upside Your Head [0:04:11.61]
07. Ain't No Stoppin' Us Now [0:04:53.26]
08. Higher And Higher [0:04:20.50]
09. Contact - Radio Edit [0:03:36.11]
10. S.O.S. [0:03:24.57]
11. And The Beat Goes On [0:03:52.28]
12. H.A.P.P.Y. Radio [0:03:51.14]
13. War [0:03:46.36]
14. Gimme Just A Little More Time [0:03:49.43]
15. That;s The Way I Like It [0:03:32.24]
16. Contact - Club Mix [0:05:36.31]
 
Лог создания рипа
Exact Audio Copy V1.0 beta 3 from 29. August 2011
Отчёт EAC об извлечении, выполненном 8. октября 2015, 22:42
Edwin Starr / Edwin Starr
Дисковод: ASUS DRW-1814BLT Adapter: 4 ID: 0
Режим чтения : Достоверность
Использование точного потока : Да
Отключение кэша аудио : Да
Использование указателей C2 : Нет
Коррекция смещения при чтении : 6
Способность читать области Lead-in и Lead-out : Нет
Заполнение пропущенных сэмплов тишиной : Да
Удаление блоков с тишиной в начале и конце : Нет
При вычислениях CRC использовались нулевые сэмплы : Да
Интерфейс : Встроенный Win32-интерфейс для Win NT/2000
Обработка зазоров : Добавлено к предыдущему треку
Выходной формат : Пользовательский кодировщик
Выбранный битрейт : 128 kBit/s
Качество : Высокий
Добавление ID3-тега : Нет
Утилита сжатия : C:\Program Files\Exact Audio Copy\Flac\flac.exe
Дополнительные параметры : -V -8 -T "Genre=%genre%" -T "Artist=%artist%" -T "Title=%title%" -T "Album=%albumtitle%" -T "Date=%year%" -T "Tracknumber=%tracknr%" -T "Comment=EAC1.0b2 FLAC -8" %source%
TOC извлечённого CD
Трек | Старт | Длительность | Начальный сектор | Конечный сектор
---------------------------------------------------------------------
1 | 0:00.00 | 3:16.09 | 0 | 14708
2 | 3:16.09 | 4:15.29 | 14709 | 33862
3 | 7:31.38 | 4:24.22 | 33863 | 53684
4 | 11:55.60 | 4:01.45 | 53685 | 71804
5 | 15:57.30 | 5:23.02 | 71805 | 96031
6 | 21:20.32 | 4:11.61 | 96032 | 114917
7 | 25:32.18 | 4:53.26 | 114918 | 136918
8 | 30:25.44 | 4:20.50 | 136919 | 156468
9 | 34:46.19 | 3:36.11 | 156469 | 172679
10 | 38:22.30 | 3:24.57 | 172680 | 188036
11 | 41:47.12 | 3:52.28 | 188037 | 205464
12 | 45:39.40 | 3:51.14 | 205465 | 222803
13 | 49:30.54 | 3:46.36 | 222804 | 239789
14 | 53:17.15 | 3:49.43 | 239790 | 257007
15 | 57:06.58 | 3:32.24 | 257008 | 272931
16 | 60:39.07 | 5:36.31 | 272932 | 298162
Трек 1
Имя файла R:\Раздача 54\Edwin Starr - 2001\01 Love Train.wav
Длина предзазора 0:00:02.00
Пиковый уровень 94.5 %
Скорость извлечения 4.4 X
Качество трека 100.0 %
CRC теста AE845E85
CRC копии AE845E85
Точное извлечение (достоверность 1) [EEA9C560] (AR v2)
Копирование... OK
Трек 2
Имя файла R:\Раздача 54\Edwin Starr - 2001\02 Ain't Gonna Bump No More.wav
Пиковый уровень 100.0 %
Скорость извлечения 5.0 X
Качество трека 100.0 %
CRC теста 292E7FBC
CRC копии 292E7FBC
Точное извлечение (достоверность 1) [1DB4D8C2] (AR v2)
Копирование... OK
Трек 3
Имя файла R:\Раздача 54\Edwin Starr - 2001\03 Get Down On It.wav
Пиковый уровень 95.7 %
Скорость извлечения 3.9 X
Качество трека 99.9 %
CRC теста E63E967E
CRC копии E63E967E
Точное извлечение (достоверность 1) [845AC5BC] (AR v2)
Копирование... OK
Трек 4
Имя файла R:\Раздача 54\Edwin Starr - 2001\04 Knock On Wood.wav
Пиковый уровень 97.0 %
Скорость извлечения 5.7 X
Качество трека 100.0 %
CRC теста B9435EC9
CRC копии B9435EC9
Точное извлечение (достоверность 1) [5EBAF288] (AR v2)
Копирование... OK
Трек 5
Имя файла R:\Раздача 54\Edwin Starr - 2001\05 Mustang Sally.wav
Пиковый уровень 100.0 %
Скорость извлечения 4.7 X
Качество трека 99.9 %
CRC теста CAC5E53A
CRC копии CAC5E53A
Точное извлечение (достоверность 1) [55A53813] (AR v2)
Копирование... OK
Трек 6
Имя файла R:\Раздача 54\Edwin Starr - 2001\06 Oops, Upside Your Head.wav
Пиковый уровень 100.0 %
Скорость извлечения 6.6 X
Качество трека 100.0 %
CRC теста D9C1FC33
CRC копии D9C1FC33
Точное извлечение (достоверность 1) [2157B468] (AR v2)
Копирование... OK
Трек 7
Имя файла R:\Раздача 54\Edwin Starr - 2001\07 Ain't No Stoppin' Us Now.wav
Пиковый уровень 100.0 %
Скорость извлечения 7.0 X
Качество трека 100.0 %
CRC теста C0BB6AA0
CRC копии C0BB6AA0
Точное извлечение (достоверность 1) [62A5AC26] (AR v2)
Копирование... OK
Трек 8
Имя файла R:\Раздача 54\Edwin Starr - 2001\08 Higher And Higher.wav
Пиковый уровень 97.1 %
Скорость извлечения 7.3 X
Качество трека 100.0 %
CRC теста 21FC0A75
CRC копии 21FC0A75
Точное извлечение (достоверность 1) [2BDF9DF0] (AR v2)
Копирование... OK
Трек 9
Имя файла R:\Раздача 54\Edwin Starr - 2001\09 Contact - Radio Edit.wav
Пиковый уровень 98.8 %
Скорость извлечения 5.2 X
Качество трека 99.9 %
CRC теста A7462C36
CRC копии A7462C36
Точное извлечение (достоверность 1) [A93D9ED4] (AR v2)
Копирование... OK
Трек 10
Имя файла R:\Раздача 54\Edwin Starr - 2001\10 S.O.S..wav
Пиковый уровень 100.0 %
Скорость извлечения 7.5 X
Качество трека 100.0 %
CRC теста 0C77FAC5
CRC копии 0C77FAC5
Точное извлечение (достоверность 1) [D9F05269] (AR v2)
Копирование... OK
Трек 11
Имя файла R:\Раздача 54\Edwin Starr - 2001\11 And The Beat Goes On.wav
Пиковый уровень 100.0 %
Скорость извлечения 5.6 X
Качество трека 99.9 %
CRC теста 1D5D1A5B
CRC копии 1D5D1A5B
Точное извлечение (достоверность 1) [E448773D] (AR v2)
Копирование... OK
Трек 12
Имя файла R:\Раздача 54\Edwin Starr - 2001\12 H.A.P.P.Y. Radio.wav
Пиковый уровень 100.0 %
Скорость извлечения 8.1 X
Качество трека 100.0 %
CRC теста AA46303D
CRC копии AA46303D
Точное извлечение (достоверность 1) [0AC95FE2] (AR v2)
Копирование... OK
Трек 13
Имя файла R:\Раздача 54\Edwin Starr - 2001\13 War.wav
Пиковый уровень 95.0 %
Скорость извлечения 8.2 X
Качество трека 100.0 %
CRC теста F7AFFEA6
CRC копии F7AFFEA6
Точное извлечение (достоверность 1) [CE80AF7F] (AR v2)
Копирование... OK
Трек 14
Имя файла R:\Раздача 54\Edwin Starr - 2001\14 Gimme Just A Little More Time.wav
Пиковый уровень 100.0 %
Скорость извлечения 8.4 X
Качество трека 100.0 %
CRC теста 6635B2EC
CRC копии 6635B2EC
Точное извлечение (достоверность 1) [EFC56D96] (AR v2)
Копирование... OK
Трек 15
Имя файла R:\Раздача 54\Edwin Starr - 2001\15 That;s The Way I Like It.wav
Пиковый уровень 83.0 %
Скорость извлечения 8.5 X
Качество трека 100.0 %
CRC теста AA80A032
CRC копии AA80A032
Точное извлечение (достоверность 1) [E08F0144] (AR v2)
Копирование... OK
Трек 16
Имя файла R:\Раздача 54\Edwin Starr - 2001\16 Contact - Club Mix.wav
Пиковый уровень 98.8 %
Скорость извлечения 8.0 X
Качество трека 100.0 %
CRC теста 5E94B438
CRC копии 5E94B438
Точное извлечение (достоверность 1) [B011B22C] (AR v2)
Копирование... OK
Все треки извлечены точно
Ошибок не произошло
Конец отчёта
==== Контрольная сумма отчёта 1A681DAE3893077249CB4A12F63568E8F9552A944F1BEB6D40D71455480E2065 ====
 
Содержание индексной карты (.CUE)
REM GENRE R&B
REM DATE 2001
REM DISCID F40F8710
REM COMMENT "ExactAudioCopy v1.0b3"
CATALOG 5029248124120
PERFORMER "Edwin Starr"
TITLE "Edwin Starr"
FILE "01 Love Train.wav" WAVE
TRACK 01 AUDIO
TITLE "Love Train"
PERFORMER "Edwin Starr"
INDEX 01 00:00:00
FILE "02 Ain't Gonna Bump No More.wav" WAVE
TRACK 02 AUDIO
TITLE "Ain't Gonna Bump No More"
PERFORMER "Edwin Starr"
INDEX 01 00:00:00
FILE "03 Get Down On It.wav" WAVE
TRACK 03 AUDIO
TITLE "Get Down On It"
PERFORMER "Edwin Starr"
INDEX 01 00:00:00
FILE "04 Knock On Wood.wav" WAVE
TRACK 04 AUDIO
TITLE "Knock On Wood"
PERFORMER "Edwin Starr"
INDEX 01 00:00:00
FILE "05 Mustang Sally.wav" WAVE
TRACK 05 AUDIO
TITLE "Mustang Sally"
PERFORMER "Edwin Starr"
INDEX 01 00:00:00
FILE "06 Oops, Upside Your Head.wav" WAVE
TRACK 06 AUDIO
TITLE "Oops, Upside Your Head"
PERFORMER "Edwin Starr"
INDEX 01 00:00:00
FILE "07 Ain't No Stoppin' Us Now.wav" WAVE
TRACK 07 AUDIO
TITLE "Ain't No Stoppin' Us Now"
PERFORMER "Edwin Starr"
INDEX 01 00:00:00
FILE "08 Higher And Higher.wav" WAVE
TRACK 08 AUDIO
TITLE "Higher And Higher"
PERFORMER "Edwin Starr"
INDEX 01 00:00:00
FILE "09 Contact - Radio Edit.wav" WAVE
TRACK 09 AUDIO
TITLE "Contact - Radio Edit"
PERFORMER "Edwin Starr"
INDEX 01 00:00:00
FILE "10 S.O.S..wav" WAVE
TRACK 10 AUDIO
TITLE "S.O.S."
PERFORMER "Edwin Starr"
INDEX 01 00:00:00
FILE "11 And The Beat Goes On.wav" WAVE
TRACK 11 AUDIO
TITLE "And The Beat Goes On"
PERFORMER "Edwin Starr"
INDEX 01 00:00:00
FILE "12 H.A.P.P.Y. Radio.wav" WAVE
TRACK 12 AUDIO
TITLE "H.A.P.P.Y. Radio"
PERFORMER "Edwin Starr"
INDEX 01 00:00:00
FILE "13 War.wav" WAVE
TRACK 13 AUDIO
TITLE "War"
PERFORMER "Edwin Starr"
INDEX 01 00:00:00
FILE "14 Gimme Just A Little More Time.wav" WAVE
TRACK 14 AUDIO
TITLE "Gimme Just A Little More Time"
PERFORMER "Edwin Starr"
INDEX 01 00:00:00
FILE "15 That;s The Way I Like It.wav" WAVE
TRACK 15 AUDIO
TITLE "That;s The Way I Like It"
PERFORMER "Edwin Starr"
INDEX 01 00:00:00
FILE "16 Contact - Club Mix.wav" WAVE
TRACK 16 AUDIO
TITLE "Contact - Club Mix"
PERFORMER "Edwin Starr"
INDEX 01 00:00:00
Приватный:
Нет (DHT включён)
Размер:
441.25 Мб (462,688,675 байт) » файлов: 26
Участники:
0 раздают, 0 качают (0 участников всего)
Внешние участники:
2 раздают, 1 качают (3 участников всего) [ Обновить ]
Есть вопросы - пишите личное сообщение пользователю M0p94ok.
08:21
101
Нет комментариев. Ваш будет первым!