Поиск

(Funk, Soul, Blues, Jazz, R&B, World) [CD] VA - Roots of FUNK 1947-1962 (3CD) - 2015, FLAC (tracks+.cue), lossless

Треклист:
Roots of FUNK 1947-1962 (3CD)
Жанр: Funk, Soul, Blues, Jazz, R&B, World
Носитель: CD
Страна-производитель диска (релиза): FR
Год издания: 2015
Издатель (лейбл): Frémeaux & Associés
Номер по каталогу: FA5498
Аудиокодек: FLAC (*.flac)
Тип рипа: tracks+.cue
Битрейт аудио: lossless
Продолжительность: 03:33:18
Источник (релизер): WRZMusic (The Weasel)
Наличие сканов в содержимом раздачи: нет

 
CD 1 [01:08:14]
01. Machito and His Afro-Cuban Orchestra - Tanga (Part 1) [3:59]
02. Tito Puente and His Orchestra - Abaniquito [2:53]
03. Vaudou Congregation - Baboule Dance (Bamboula Rhythm) [1:14]
04. Slim Gaillard and His Orchestra - Babalu [3:38]
05. Lord Composer and the Silver Seas Hotel Orchestra - Hill and Gully Ride/Mandeville Road [3:02]
06. Vaudou Congregation - Po' drapeaux (petro mazonnei) [5:51]
07. Ruth Brown & Her Rhythmakers - Mambo Baby [2:44]
08. Vaudou Congregation - Ayizan Marche (zepaules) [3:26]
09. René Touzet and His Orchestra - El Loco Cha Cha [3:04]
10. Richard Berry and the Pharaohs - Louie Louie [2:15]
11. Dioris Valladares y su Conjunto Típico - Compay Cucu [2:56]
12. Monthy Reynolds & The Shaw Park Calypso Band - Me Dog Can't Bark [2:46]
13. Bo Diddley - Bo Diddley [2:23]
14. Lord Tickler with the Jamaican Calypsonians - Limbo [3:14]
15. The Wrigglers - Limbo [2:10]
16. Bo Diddley - Limbo [2:40]
17. Reuben McCoy & The Hamiltonians - Limbo [2:28]
18. Allen Toussaint - Java [1:56]
19. Nemours Jean-Baptiste et son Ensemble - Contre Danse N°4 [2:19]
20. Allen Toussaint - Me and You [2:10]
21. Mongo Santamaría - Olla De for Olla [3:52]
22. Milito Perez W/ Luis Quintero Y su Conjunto Alma Cibaeña - Severa [3:04]
23. Various Artists - Papa Legba Invocation (from the album Cérémonies vaudou en Haïti) [1:10]
24. Ensemble de Quadrille Guadeloupéen - Pantalon [3:00]
 
Лог создания рипа
Exact Audio Copy V1.1 from 23. June 2015
EAC extraction logfile from 1. September 2015, 11:03
Various Artists / Roots of Funk 1947-1962 (CD 1)
Used drive : hp BD ROM BC-5541H Adapter: 1 ID: 0
Read mode : Secure
Utilize accurate stream : Yes
Defeat audio cache : Yes
Make use of C2 pointers : No
Read offset correction : 48
Overread into Lead-In and Lead-Out : No
Fill up missing offset samples with silence : Yes
Delete leading and trailing silent blocks : No
Null samples used in CRC calculations : Yes
Used interface : Native Win32 interface for Win NT & 2000
Gap handling : Appended to previous track
Used output format : User Defined Encoder
Selected bitrate : 1024 kBit/s
Quality : High
Add ID3 tag : No
Command line compressor : C:\Program Files (x86)\Exact Audio Copy\Flac\flac.exe
Additional command line options : -8 -V -T "ARTIST=%artist%" -T "TITLE=%title%" -T "ALBUM=%albumtitle%" -T "DATE=%year%" -T "TRACKNUMBER=%tracknr%" -T "GENRE=%genre%" -T "PERFORMER=%albuminterpret%" -T "COMPOSER=%composer%" %haslyrics%--tag-from-file=LYRICS="%lyricsfile%"%haslyrics% -T "ALBUMARTIST=%albumartist%" -T "DISCNUMBER=%cdnumber%" -T "TOTALDISCS=%totalcds%" -T "TOTALTRACKS=%numtracks%" -T "COMMENT=%comment%" %source% -o %dest%
TOC of the extracted CD
Track | Start | Length | Start sector | End sector
---------------------------------------------------------
1 | 0:00.00 | 3:58.50 | 0 | 17899
2 | 3:58.50 | 2:53.21 | 17900 | 30895
3 | 6:51.71 | 1:13.65 | 30896 | 36435
4 | 8:05.61 | 3:38.06 | 36436 | 52791
5 | 11:43.67 | 3:02.07 | 52792 | 66448
6 | 14:45.74 | 5:51.33 | 66449 | 92806
7 | 20:37.32 | 2:44.02 | 92807 | 105108
8 | 23:21.34 | 3:25.63 | 105109 | 120546
9 | 26:47.22 | 3:04.34 | 120547 | 134380
10 | 29:51.56 | 2:14.73 | 134381 | 144503
11 | 32:06.54 | 2:56.15 | 144504 | 157718
12 | 35:02.69 | 2:46.02 | 157719 | 170170
13 | 37:48.71 | 2:22.40 | 170171 | 180860
14 | 40:11.36 | 3:14.28 | 180861 | 195438
15 | 43:25.64 | 2:10.10 | 195439 | 205198
16 | 45:35.74 | 2:39.50 | 205199 | 217173
17 | 48:15.49 | 2:27.69 | 217174 | 228267
18 | 50:43.43 | 1:56.06 | 228268 | 236973
19 | 52:39.49 | 2:18.40 | 236974 | 247363
20 | 54:58.14 | 2:09.50 | 247364 | 257088
21 | 57:07.64 | 3:52.07 | 257089 | 274495
22 | 60:59.71 | 3:04.23 | 274496 | 288318
23 | 64:04.19 | 1:10.19 | 288319 | 293587
24 | 65:14.38 | 2:59.61 | 293588 | 307073
Track 1
Filename C:\Users\kolia\Desktop\Various Artists - Roots of Funk 1947-1962 (2015) [FLAC]\Roots of Funk 1947-1962 (CD 1)\01 - Tanga (Part 1).wav
Pre-gap length 0:00:02.00
Peak level 82.7 %
Extraction speed 10.6 X
Track quality 100.0 %
Test CRC 2C2D130E
Copy CRC 2C2D130E
Track not present in AccurateRip database
Copy OK
Track 2
Filename C:\Users\kolia\Desktop\Various Artists - Roots of Funk 1947-1962 (2015) [FLAC]\Roots of Funk 1947-1962 (CD 1)\02 - Abaniquito.wav
Pre-gap length 0:00:02.00
Peak level 85.1 %
Extraction speed 10.2 X
Track quality 99.9 %
Test CRC 689868FF
Copy CRC 689868FF
Track not present in AccurateRip database
Copy OK
Track 3
Filename C:\Users\kolia\Desktop\Various Artists - Roots of Funk 1947-1962 (2015) [FLAC]\Roots of Funk 1947-1962 (CD 1)\03 - Baboule Dance (Bamboula Rhythm).wav
Pre-gap length 0:00:02.00
Peak level 54.1 %
Extraction speed 10.3 X
Track quality 100.0 %
Test CRC ACB0F47D
Copy CRC ACB0F47D
Track not present in AccurateRip database
Copy OK
Track 4
Filename C:\Users\kolia\Desktop\Various Artists - Roots of Funk 1947-1962 (2015) [FLAC]\Roots of Funk 1947-1962 (CD 1)\04 - Babalu.wav
Pre-gap length 0:00:02.00
Peak level 97.8 %
Extraction speed 12.3 X
Track quality 100.0 %
Test CRC 649EF9B6
Copy CRC 649EF9B6
Track not present in AccurateRip database
Copy OK
Track 5
Filename C:\Users\kolia\Desktop\Various Artists - Roots of Funk 1947-1962 (2015) [FLAC]\Roots of Funk 1947-1962 (CD 1)\05 - Hill and Gully Ride,Mandeville Road.wav
Pre-gap length 0:00:02.00
Peak level 75.7 %
Extraction speed 12.9 X
Track quality 100.0 %
Test CRC 484E9590
Copy CRC 484E9590
Track not present in AccurateRip database
Copy OK
Track 6
Filename C:\Users\kolia\Desktop\Various Artists - Roots of Funk 1947-1962 (2015) [FLAC]\Roots of Funk 1947-1962 (CD 1)\06 - Po' drapeaux (petro mazonnei).wav
Pre-gap length 0:00:02.00
Peak level 87.4 %
Extraction speed 14.1 X
Track quality 100.0 %
Test CRC E6874774
Copy CRC E6874774
Track not present in AccurateRip database
Copy OK
Track 7
Filename C:\Users\kolia\Desktop\Various Artists - Roots of Funk 1947-1962 (2015) [FLAC]\Roots of Funk 1947-1962 (CD 1)\07 - Mambo Baby.wav
Pre-gap length 0:00:02.00
Peak level 89.4 %
Extraction speed 12.5 X
Track quality 99.9 %
Test CRC 54A069A3
Copy CRC 54A069A3
Track not present in AccurateRip database
Copy OK
Track 8
Filename C:\Users\kolia\Desktop\Various Artists - Roots of Funk 1947-1962 (2015) [FLAC]\Roots of Funk 1947-1962 (CD 1)\08 - Ayizan Marche (zepaules).wav
Pre-gap length 0:00:02.00
Peak level 74.9 %
Extraction speed 13.4 X
Track quality 99.9 %
Test CRC 8C3F1D50
Copy CRC 8C3F1D50
Track not present in AccurateRip database
Copy OK
Track 9
Filename C:\Users\kolia\Desktop\Various Artists - Roots of Funk 1947-1962 (2015) [FLAC]\Roots of Funk 1947-1962 (CD 1)\09 - El Loco Cha Cha.wav
Pre-gap length 0:00:02.00
Peak level 94.2 %
Extraction speed 15.1 X
Track quality 100.0 %
Test CRC 99D96DD0
Copy CRC 99D96DD0
Track not present in AccurateRip database
Copy OK
Track 10
Filename C:\Users\kolia\Desktop\Various Artists - Roots of Funk 1947-1962 (2015) [FLAC]\Roots of Funk 1947-1962 (CD 1)\10 - Louie Louie.wav
Pre-gap length 0:00:02.00
Peak level 75.5 %
Extraction speed 14.8 X
Track quality 100.0 %
Test CRC CA9E93ED
Copy CRC CA9E93ED
Track not present in AccurateRip database
Copy OK
Track 11
Filename C:\Users\kolia\Desktop\Various Artists - Roots of Funk 1947-1962 (2015) [FLAC]\Roots of Funk 1947-1962 (CD 1)\11 - Compay Cucu.wav
Pre-gap length 0:00:02.00
Peak level 80.4 %
Extraction speed 15.6 X
Track quality 100.0 %
Test CRC 66336A83
Copy CRC 66336A83
Track not present in AccurateRip database
Copy OK
Track 12
Filename C:\Users\kolia\Desktop\Various Artists - Roots of Funk 1947-1962 (2015) [FLAC]\Roots of Funk 1947-1962 (CD 1)\12 - Me Dog Can't Bark.wav
Pre-gap length 0:00:02.00
Peak level 73.2 %
Extraction speed 15.8 X
Track quality 100.0 %
Test CRC F1DA7C42
Copy CRC F1DA7C42
Track not present in AccurateRip database
Copy OK
Track 13
Filename C:\Users\kolia\Desktop\Various Artists - Roots of Funk 1947-1962 (2015) [FLAC]\Roots of Funk 1947-1962 (CD 1)\13 - Bo Diddley.wav
Pre-gap length 0:00:02.00
Peak level 98.8 %
Extraction speed 15.7 X
Track quality 100.0 %
Test CRC 3246EA1E
Copy CRC 3246EA1E
Track not present in AccurateRip database
Copy OK
Track 14
Filename C:\Users\kolia\Desktop\Various Artists - Roots of Funk 1947-1962 (2015) [FLAC]\Roots of Funk 1947-1962 (CD 1)\14 - Limbo.wav
Pre-gap length 0:00:02.00
Peak level 65.3 %
Extraction speed 16.7 X
Track quality 100.0 %
Test CRC A089C607
Copy CRC A089C607
Track not present in AccurateRip database
Copy OK
Track 15
Filename C:\Users\kolia\Desktop\Various Artists - Roots of Funk 1947-1962 (2015) [FLAC]\Roots of Funk 1947-1962 (CD 1)\15 - Limbo.wav
Pre-gap length 0:00:02.00
Peak level 88.8 %
Extraction speed 13.9 X
Track quality 99.9 %
Test CRC 067089CC
Copy CRC 067089CC
Track not present in AccurateRip database
Copy OK
Track 16
Filename C:\Users\kolia\Desktop\Various Artists - Roots of Funk 1947-1962 (2015) [FLAC]\Roots of Funk 1947-1962 (CD 1)\16 - Limbo.wav
Pre-gap length 0:00:02.00
Peak level 65.7 %
Extraction speed 14.7 X
Track quality 99.9 %
Test CRC B3DD8273
Copy CRC B3DD8273
Track not present in AccurateRip database
Copy OK
Track 17
Filename C:\Users\kolia\Desktop\Various Artists - Roots of Funk 1947-1962 (2015) [FLAC]\Roots of Funk 1947-1962 (CD 1)\17 - Limbo.wav
Pre-gap length 0:00:02.00
Peak level 97.2 %
Extraction speed 16.9 X
Track quality 100.0 %
Test CRC 0EC98BB2
Copy CRC 0EC98BB2
Track not present in AccurateRip database
Copy OK
Track 18
Filename C:\Users\kolia\Desktop\Various Artists - Roots of Funk 1947-1962 (2015) [FLAC]\Roots of Funk 1947-1962 (CD 1)\18 - Java.wav
Pre-gap length 0:00:02.00
Peak level 84.2 %
Extraction speed 16.4 X
Track quality 100.0 %
Test CRC 84B97231
Copy CRC 84B97231
Track not present in AccurateRip database
Copy OK
Track 19
Filename C:\Users\kolia\Desktop\Various Artists - Roots of Funk 1947-1962 (2015) [FLAC]\Roots of Funk 1947-1962 (CD 1)\19 - Contre Danse N°4.wav
Pre-gap length 0:00:02.00
Peak level 97.4 %
Extraction speed 17.3 X
Track quality 100.0 %
Test CRC BFD2AD52
Copy CRC BFD2AD52
Track not present in AccurateRip database
Copy OK
Track 20
Filename C:\Users\kolia\Desktop\Various Artists - Roots of Funk 1947-1962 (2015) [FLAC]\Roots of Funk 1947-1962 (CD 1)\20 - Me and You.wav
Pre-gap length 0:00:02.00
Peak level 91.8 %
Extraction speed 17.2 X
Track quality 100.0 %
Test CRC 9B6064BB
Copy CRC 9B6064BB
Track not present in AccurateRip database
Copy OK
Track 21
Filename C:\Users\kolia\Desktop\Various Artists - Roots of Funk 1947-1962 (2015) [FLAC]\Roots of Funk 1947-1962 (CD 1)\21 - Olla De for Olla.wav
Pre-gap length 0:00:02.00
Peak level 82.6 %
Extraction speed 16.6 X
Track quality 99.9 %
Test CRC 5CF4E2CA
Copy CRC 5CF4E2CA
Track not present in AccurateRip database
Copy OK
Track 22
Filename C:\Users\kolia\Desktop\Various Artists - Roots of Funk 1947-1962 (2015) [FLAC]\Roots of Funk 1947-1962 (CD 1)\22 - Severa.wav
Pre-gap length 0:00:02.00
Peak level 98.1 %
Extraction speed 18.6 X
Track quality 100.0 %
Test CRC 13D98253
Copy CRC 13D98253
Track not present in AccurateRip database
Copy OK
Track 23
Filename C:\Users\kolia\Desktop\Various Artists - Roots of Funk 1947-1962 (2015) [FLAC]\Roots of Funk 1947-1962 (CD 1)\23 - Papa Legba Invocation (from the album Cérémonies vaudou en Haïti).wav
Pre-gap length 0:00:02.00
Peak level 76.4 %
Extraction speed 15.6 X
Track quality 100.0 %
Test CRC B08335E1
Copy CRC B08335E1
Track not present in AccurateRip database
Copy OK
Track 24
Filename C:\Users\kolia\Desktop\Various Artists - Roots of Funk 1947-1962 (2015) [FLAC]\Roots of Funk 1947-1962 (CD 1)\24 - Pantalon.wav
Pre-gap length 0:00:02.00
Peak level 89.4 %
Extraction speed 18.8 X
Track quality 100.0 %
Test CRC 3C91BD31
Copy CRC 3C91BD31
Track not present in AccurateRip database
Copy OK
None of the tracks are present in the AccurateRip database
No errors occurred
End of status report
---- CUETools DB Plugin V2.1.6
[CTDB TOCID: I7XuCuZIXsSnhm.LI_GKeWi8cu4-] found
Submit result: already submitted
Track | CTDB Status
1 | (1/1) Accurately ripped
2 | (1/1) Accurately ripped
3 | (1/1) Accurately ripped
4 | (1/1) Accurately ripped
5 | (1/1) Accurately ripped
6 | (1/1) Accurately ripped
7 | (1/1) Accurately ripped
8 | (1/1) Accurately ripped
9 | (1/1) Accurately ripped
10 | (1/1) Accurately ripped
11 | (1/1) Accurately ripped
12 | (1/1) Accurately ripped
13 | (1/1) Accurately ripped
14 | (1/1) Accurately ripped
15 | (1/1) Accurately ripped
16 | (1/1) Accurately ripped
17 | (1/1) Accurately ripped
18 | (1/1) Accurately ripped
19 | (1/1) Accurately ripped
20 | (1/1) Accurately ripped
21 | (1/1) Accurately ripped
22 | (1/1) Accurately ripped
23 | (1/1) Accurately ripped
24 | (1/1) Accurately ripped
==== Log checksum 173E30BEF544A581F61BF47CB46CC76ECFAE57C5D6E153B687FB869567813B58 ====
 
Содержание индексной карты (.CUE)
REM DATE 2015
REM DISCID 550FFE18
REM COMMENT "ExactAudioCopy v1.1"
PERFORMER "Various Artists"
TITLE "Roots of Funk 1947-1962 (CD 1)"
FILE "01 - Tanga (Part 1).wav" WAVE
TRACK 01 AUDIO
TITLE "Tanga (Part 1)"
PERFORMER "Machito and His Afro-Cuban Orchestra"
ISRC FRX191403310
INDEX 01 00:00:00
TRACK 02 AUDIO
TITLE "Abaniquito"
PERFORMER "Tito Puente and His Orchestra"
ISRC FRX191403311
INDEX 00 03:56:50
FILE "02 - Abaniquito.wav" WAVE
INDEX 01 00:00:00
TRACK 03 AUDIO
TITLE "Baboule Dance (Bamboula Rhythm)"
PERFORMER "Vaudou Congregation"
ISRC FRX191403312
INDEX 00 02:51:21
FILE "03 - Baboule Dance (Bamboula Rhythm).wav" WAVE
INDEX 01 00:00:00
TRACK 04 AUDIO
TITLE "Babalu"
PERFORMER "Slim Gaillard and His Orchestra"
ISRC FRX191403313
INDEX 00 01:11:65
FILE "04 - Babalu.wav" WAVE
INDEX 01 00:00:00
TRACK 05 AUDIO
TITLE "Hill and Gully Ride/Mandeville Road"
PERFORMER "Lord Composer and the Silver Seas Hotel Orchestra"
ISRC FRX191403314
INDEX 00 03:36:06
FILE "05 - Hill and Gully Ride - Mandeville Road.wav" WAVE
INDEX 01 00:00:00
TRACK 06 AUDIO
TITLE "Po' drapeaux (petro mazonnei)"
PERFORMER "Vaudou Congregation"
ISRC FRX191403315
INDEX 00 03:00:07
FILE "06 - Po' drapeaux (petro mazonnei).wav" WAVE
INDEX 01 00:00:00
TRACK 07 AUDIO
TITLE "Mambo Baby"
PERFORMER "Ruth Brown & Her Rhythmakers"
ISRC FRX191403316
INDEX 00 05:49:33
FILE "07 - Mambo Baby.wav" WAVE
INDEX 01 00:00:00
TRACK 08 AUDIO
TITLE "Ayizan Marche (zepaules)"
PERFORMER "Vaudou Congregation"
ISRC FRX191403317
INDEX 00 02:42:02
FILE "08 - Ayizan Marche (zepaules).wav" WAVE
INDEX 01 00:00:00
TRACK 09 AUDIO
TITLE "El Loco Cha Cha"
PERFORMER "Rene Touzet and His Orchestra"
ISRC FRX191403318
INDEX 00 03:23:63
FILE "09 - El Loco Cha Cha.wav" WAVE
INDEX 01 00:00:00
TRACK 10 AUDIO
TITLE "Louie Louie"
PERFORMER "Richard Berry and the Pharaohs"
ISRC FRX191403319
INDEX 00 03:02:34
FILE "10 - Louie Louie.wav" WAVE
INDEX 01 00:00:00
TRACK 11 AUDIO
TITLE "Compay Cucu"
PERFORMER "Dioris Valladares y su Conjunto Tipico"
ISRC FRX191403320
INDEX 00 02:12:73
FILE "11 - Compay Cucu.wav" WAVE
INDEX 01 00:00:00
TRACK 12 AUDIO
TITLE "Me Dog Can't Bark"
PERFORMER "Monthy Reynolds & The Shaw Park Calypso Band"
ISRC FRX191403321
INDEX 00 02:54:15
FILE "12 - Me Dog Can't Bark.wav" WAVE
INDEX 01 00:00:00
TRACK 13 AUDIO
TITLE "Bo Diddley"
PERFORMER "Bo Diddley"
ISRC FRX191403322
INDEX 00 02:44:02
FILE "13 - Bo Diddley.wav" WAVE
INDEX 01 00:00:00
TRACK 14 AUDIO
TITLE "Limbo"
PERFORMER "Lord Tickler with the Jamaican Calypsonians"
ISRC FRX191403323
INDEX 00 02:20:40
FILE "14 - Limbo.wav" WAVE
INDEX 01 00:00:00
TRACK 15 AUDIO
TITLE "Limbo"
PERFORMER "The Wrigglers"
ISRC FRX191403324
INDEX 00 03:12:28
FILE "15 - Limbo.wav" WAVE
INDEX 01 00:00:00
TRACK 16 AUDIO
TITLE "Limbo"
PERFORMER "Bo Diddley"
ISRC FRX191403325
INDEX 00 02:08:10
FILE "16 - Limbo.wav" WAVE
INDEX 01 00:00:00
TRACK 17 AUDIO
TITLE "Limbo"
PERFORMER "Reuben McCoy & The Hamiltonians"
ISRC FRX191403326
INDEX 00 02:37:50
FILE "17 - Limbo.wav" WAVE
INDEX 01 00:00:00
TRACK 18 AUDIO
TITLE "Java"
PERFORMER "Allen Toussaint"
ISRC FRX191403327
INDEX 00 02:25:69
FILE "18 - Java.wav" WAVE
INDEX 01 00:00:00
TRACK 19 AUDIO
TITLE "Contre Danse N°4"
PERFORMER "Nemours Jean-Baptiste et son Ensemble"
ISRC FRX191403328
INDEX 00 01:54:06
FILE "19 - Contre Danse N4.wav" WAVE
INDEX 01 00:00:00
TRACK 20 AUDIO
TITLE "Me and You"
PERFORMER "Allen Toussaint"
ISRC FRX191403329
INDEX 00 02:16:40
FILE "20 - Me and You.wav" WAVE
INDEX 01 00:00:00
TRACK 21 AUDIO
TITLE "Olla De for Olla"
PERFORMER "Mongo Santamarнa"
ISRC FRX191403330
INDEX 00 02:07:50
FILE "21 - Olla De for Olla.wav" WAVE
INDEX 01 00:00:00
TRACK 22 AUDIO
TITLE "Severa"
PERFORMER "Milito Perez W/ Luis Quintero Y su Conjunto Alma Cibaeсa"
ISRC FRX191403331
INDEX 00 03:50:07
FILE "22 - Severa.wav" WAVE
INDEX 01 00:00:00
TRACK 23 AUDIO
TITLE "Papa Legba Invocation (from the album Cйrйmonies vaudou en Haпti)"
PERFORMER "Various Artists"
ISRC FRX191403332
INDEX 00 03:02:23
FILE "23 - Papa Legba Invocation (from the album Ceremonies vaudou en Haiti).wav" WAVE
INDEX 01 00:00:00
TRACK 24 AUDIO
TITLE "Pantalon"
PERFORMER "Ensemble de Quadrille Guadeloupeen"
ISRC FRX191403333
INDEX 00 01:08:19
FILE "24 - Pantalon.wav" WAVE
INDEX 01 00:00:00
 
Лог проверки качества
-----------------------
DON'T MODIFY THIS FILE
-----------------------
PERFORMER: auCDtect Task Manager, ver. 1.5.1RC6 build 1.5.1.7
Copyright (c) 2008-2010 y-soft. All rights reserved
http://y-soft.org
ANALYZER: auCDtect: CD records authenticity detector, version 0.8.2
Copyright (c) 2004 Oleg Berngardt. All rights reserved.
Copyright (c) 2004 Alexander Djourik. All rights reserved.
FILE: 01 - Tanga (Part 1).flac
Size: 17744807 Hash: C6C2DE4B52AAF75A478E1DDE6BE2E016 Accuracy: -m8
Conclusion: CDDA 100%
Signature: 6E8021266E9EA483D1F9706420DCAC71986B522C
FILE: 02 - Abaniquito.flac
Size: 11889493 Hash: 0026C680CD1E2B1C14AA0A2E49CF26D8 Accuracy: -m8
Conclusion: CDDA 100%
Signature: F0ADA162662D3078AE7DC59BF6E6C6666A18944B
FILE: 03 - Baboule Dance (Bamboula Rhythm).flac
Size: 4473150 Hash: F9ED0E9F860481EA6BAEE153BA3357EE Accuracy: -m8
Conclusion: CDDA 100%
Signature: 3BAB587BB67B5883B4157E0A8D125A0DBD4E96CA
FILE: 04 - Babalu.flac
Size: 13400042 Hash: 7DF628077D589800F688C7174D71EE09 Accuracy: -m8
Conclusion: CDDA 100%
Signature: 942661BE19E20A7AB676D563C14164382D5E10AF
FILE: 05 - Hill and Gully Ride - Mandeville Road.flac
Size: 11813760 Hash: 66D50F965837D1EC2A703E01BC3F7262 Accuracy: -m8
Conclusion: CDDA 100%
Signature: C25BB597646A0DAB66BEDDAC287886244B4F19CD
FILE: 06 - Po' drapeaux (petro mazonnei).flac
Size: 27986513 Hash: A058293E766A87B2B929DEB3C7343E42 Accuracy: -m8
Conclusion: CDDA 100%
Signature: CEF88EC36A526EA55F917A9153D5E3D3ED5D5E60
FILE: 07 - Mambo Baby.flac
Size: 12138459 Hash: A7D40768FCDA71F5F4AF6CCFDF26D25B Accuracy: -m8
Conclusion: CDDA 100%
Signature: AFF11257D3554C82ABB34B41C7F6D413EC27CD3D
FILE: 08 - Ayizan Marche (zepaules).flac
Size: 15537721 Hash: AB0142342158DADF6A088A5A7EBEB4C5 Accuracy: -m8
Conclusion: CDDA 100%
Signature: AC5A497FC5A24878E4339EBA10402AFEA53C9267
FILE: 09 - El Loco Cha Cha.flac
Size: 12426666 Hash: 73BA1FFB1BCCFDA7C410499E4A706F5E Accuracy: -m8
Conclusion: CDDA 99%
Signature: D4879913CCC8C4BD7DF5093B76FBC62DC9292BD7
FILE: 10 - Louie Louie.flac
Size: 11140151 Hash: 7A52A64AE2F2172CDACD22A82A159705 Accuracy: -m8
Conclusion: CDDA 100%
Signature: 5E89F6D88B196FD9CCD73BB264A7BE7B502620CC
FILE: 11 - Compay Cucu.flac
Size: 16215336 Hash: BB1ACC9B7752B4F2A4CE9B508721ADD4 Accuracy: -m8
Conclusion: CDDA 100%
Signature: F8BD170785D0FC6D13C7AB4B3364D188957DF475
FILE: 12 - Me Dog Can't Bark.flac
Size: 10874115 Hash: E4C99150A87F37E86EEB7C39A3CF60F8 Accuracy: -m8
Conclusion: CDDA 99%
Signature: 77FC69D5FD86E7719DA4A216A334BA9784F317CC
FILE: 13 - Bo Diddley.flac
Size: 13882506 Hash: 4DE968AEFB2CA10B4D98B002727BD275 Accuracy: -m8
Conclusion: MPEG 95%
Signature: 68BDAD4CDD7D53A1FC6EEAF57E5CD71237E188FA
FILE: 14 - Limbo.flac
Size: 12972387 Hash: 341050EF61ADEF2343E6E68229E2AE1D Accuracy: -m8
Conclusion: CDDA 100%
Signature: EE26EA023F57738C544C11756D20F589C50912D8
FILE: 15 - Limbo.flac
Size: 11871427 Hash: 6D2FBAC0FEE02C7BB446C4E117A85EE9 Accuracy: -m8
Conclusion: CDDA 100%
Signature: 9F6180EDAE5DB2636891DAD0691E0E8F1A7463D9
FILE: 16 - Limbo.flac
Size: 13315550 Hash: 4B91D290C9D60533A49AD4B203A7793C Accuracy: -m8
Conclusion: CDDA 100%
Signature: EE1C95FA5D23D9650496E7986D906F2622F0945F
FILE: 17 - Limbo.flac
Size: 13094467 Hash: 8A95027692AAA499C3B6B9E1AB24F159 Accuracy: -m8
Conclusion: CDDA 100%
Signature: 4BCCD4E93BA1BF27561A39A0DBAF8F935D98F6F2
FILE: 18 - Java.flac
Size: 8788248 Hash: 4773A1EEDA5069A29768698FE035DA81 Accuracy: -m8
Conclusion: CDDA 100%
Signature: 58BED43ABD75270A0CEC16FCB03A6ACE2CB33176
FILE: 19 - Contre Danse N4.flac
Size: 10418616 Hash: A1A0190ED747BCFFDBC11CC957119DB2 Accuracy: -m8
Conclusion: CDDA 100%
Signature: 1892BB40C7828A650AAA83AC303C53259BA36E5D
FILE: 20 - Me and You.flac
Size: 9198610 Hash: BB88363A48A9E4155A5FC70438512BD0 Accuracy: -m8
Conclusion: CDDA 100%
Signature: F30B80E4152D09BC64E34B69D1CDFA87C01FD051
FILE: 21 - Olla De for Olla.flac
Size: 25515361 Hash: 6ED9CB6D028D3AA4036C432A52D6C828 Accuracy: -m8
Conclusion: CDDA 100%
Signature: 52B90D56AF585A8AB5D0753C1A8D81CEC0B02DEF
FILE: 22 - Severa.flac
Size: 16817723 Hash: CBE5D6C9AD3D277646AA61C80E99FB8B Accuracy: -m8
Conclusion: CDDA 100%
Signature: 1CFBAF635FEE56E47A4D4633E3E6514068E3109A
FILE: 23 - Papa Legba Invocation (from the album Ceremonies vaudou en Haiti).flac
Size: 4558050 Hash: 9F628C1502F9920DE094A9F5D6C7791B Accuracy: -m8
Conclusion: CDDA 100%
Signature: 37B7BCBE6B6FCC5ED2B3615DE4432A14EA706B48
FILE: 24 - Pantalon.flac
Size: 15700326 Hash: 7E7A00767D34F2F09ACFE4FB07C84140 Accuracy: -m8
Conclusion: CDDA 100%
Signature: 4265D6EF1FB66AAECAA00B7F01023E29DFFCF5BF
 
Динамический диапазон
foobar2000 1.2.8 / Dynamic Range Meter 1.1.1
log date: 2015-09-02 21:59:50
--------------------------------------------------------------------------------
Analyzed: Allen Toussaint / Roots of Funk 1947-1962 (1-2)
Bo Diddley / Roots of Funk 1947-1962 (3-4)
Dioris Valladares y su Conjunto Típico / Roots of Funk 1947-1962 (5)
Ensemble de Quadrille Guadeloupéen / Roots of Funk 1947-1962 (6)
Lord Composer and the Silver Seas Hotel Orchestra / Roots of Funk 1947-1962 (7)
Lord Tickler with the Jamaican Calypsonians / Roots of Funk 1947-1962 (8)
Machito and His Afro-Cuban Orchestra / Roots of Funk 1947-1962 (9)
Milito Perez W/ Luis Quintero Y su Conjunto Alma Cibaeña / Roots of Funk 1947-1962 (10)
Mongo Santamaría / Roots of Funk 1947-1962 (11)
Monthy Reynolds & The Shaw Park Calypso Band / Roots of Funk 1947-1962 (12)
Nemours Jean-Baptiste et son Ensemble / Roots of Funk 1947-1962 (13)
René Touzet and His Orchestra / Roots of Funk 1947-1962 (14)
Reuben McCoy & The Hamiltonians / Roots of Funk 1947-1962 (15)
Richard Berry and the Pharaohs / Roots of Funk 1947-1962 (16)
Ruth Brown & Her Rhythmakers / Roots of Funk 1947-1962 (17)
Slim Gaillard and His Orchestra / Roots of Funk 1947-1962 (18)
The Wrigglers / Roots of Funk 1947-1962 (19)
Tito Puente and His Orchestra / Roots of Funk 1947-1962 (20)
Various Artists / Roots of Funk 1947-1962 (21)
Vaudou Congregation / Roots of Funk 1947-1962 (22-24)
--------------------------------------------------------------------------------
DR Peak RMS Duration Track
--------------------------------------------------------------------------------
DR11 -1.49 dB -14.82 dB 1:56 18-Java
DR12 -0.74 dB -15.64 dB 2:10 20-Me and You
DR12 -0.10 dB -13.93 dB 2:23 13-Bo Diddley
DR10 -3.64 dB -15.35 dB 2:40 16-Limbo
DR12 -1.89 dB -14.90 dB 2:56 11-Compay Cucu
DR13 -0.97 dB -15.10 dB 3:00 24-Pantalon
DR11 -2.42 dB -15.28 dB 3:02 05-Hill and Gully Ride/Mandeville Road
DR11 -3.69 dB -17.58 dB 3:14 14-Limbo
DR10 -1.64 dB -13.03 dB 3:59 01-Tanga (Part 1)
DR14 -0.17 dB -15.11 dB 3:04 22-Severa
DR10 -1.65 dB -14.61 dB 3:52 21-Olla De for Olla
DR10 -2.70 dB -14.93 dB 2:46 12-Me Dog Can't Bark
DR11 -0.22 dB -13.50 dB 2:19 19-Contre Danse N°4
DR12 -0.52 dB -14.44 dB 3:04 09-El Loco Cha Cha
DR13 -0.24 dB -16.14 dB 2:28 17-Limbo
DR10 -2.44 dB -14.53 dB 2:15 10-Louie Louie
DR10 -0.97 dB -12.96 dB 2:44 07-Mambo Baby
DR10 -0.19 dB -13.63 dB 3:38 04-Babalu
DR11 -1.02 dB -13.72 dB 2:10 15-Limbo
DR14 -1.40 dB -16.35 dB 2:53 02-Abaniquito
DR12 -2.34 dB -18.40 dB 1:10 23-Papa Legba Invocation (from the album Cérémonies vaudou en Haïti)
DR11 -5.34 dB -18.02 dB 1:14 03-Baboule Dance (Bamboula Rhythm)
DR11 -1.16 dB -14.34 dB 5:51 06-Po' drapeaux (petro mazonnei)
DR10 -2.50 dB -15.31 dB 3:26 08-Ayizan Marche (zepaules)
--------------------------------------------------------------------------------
Number of tracks: 24
Official DR value: DR11
Samplerate: 44100 Hz
Channels: 2
Bits per sample: 16
Bitrate: 600 kbps
Codec: FLAC
================================================================================
 
CD 2 [01:15:24]
01. Louis Jordan and His Tympany Five - Early in the Morning [3:28]
02. Dizzy Gillespie and His Orchestra - Manteca [3:10]
03. James Moody and His Bopmen - Tin Tin Deo [2:50]
04. Moondog - Moondog's Symphony (Part 1: Timberwolf) [1:57]
05. Slim Gaillard - Yo Yo Yo [2:49]
06. Thelonious Monk Trio - Monk's Dream [3:09]
07. Red Saunders and His Orchestra with Dolores Hawkins and The Hambone Kids - Hambone [2:39]
08. Horace Silver Trio - Opus de Funk [3:30]
09. Duke Ellington - Montevideo [2:35]
10. Mickey Baker - Old Devil Moon [2:29]
11. Sun Ra - Call for All Demons [5:14]
12. Art Blakey and The Jazz Messengers - Moanin' [9:36]
13. Charles Mingus Septet - Slop [4:44]
14. Bobby Timmons - This Here [3:34]
15. James Brown Presents His Band - Hold It [2:12]
16. Sun Ra - New Day [5:52]
17. Count Ossie and The Wareikas - First Gone [2:51]
18. Herbie Hancock - Watermelon Man [7:10]
19. Don Wilkerson - Dem Tambourines [5:35]
 
Лог создания рипа
Exact Audio Copy V1.1 from 23. June 2015
EAC extraction logfile from 1. September 2015, 10:40
Various Artists / Roots of Funk 1947-1962 (CD 2)
Used drive : hp BD ROM BC-5541H Adapter: 1 ID: 0
Read mode : Secure
Utilize accurate stream : Yes
Defeat audio cache : Yes
Make use of C2 pointers : No
Read offset correction : 48
Overread into Lead-In and Lead-Out : No
Fill up missing offset samples with silence : Yes
Delete leading and trailing silent blocks : No
Null samples used in CRC calculations : Yes
Used interface : Native Win32 interface for Win NT & 2000
Gap handling : Appended to previous track
Used output format : User Defined Encoder
Selected bitrate : 1024 kBit/s
Quality : High
Add ID3 tag : No
Command line compressor : C:\Program Files (x86)\Exact Audio Copy\Flac\flac.exe
Additional command line options : -8 -V -T "ARTIST=%artist%" -T "TITLE=%title%" -T "ALBUM=%albumtitle%" -T "DATE=%year%" -T "TRACKNUMBER=%tracknr%" -T "GENRE=%genre%" -T "PERFORMER=%albuminterpret%" -T "COMPOSER=%composer%" %haslyrics%--tag-from-file=LYRICS="%lyricsfile%"%haslyrics% -T "ALBUMARTIST=%albumartist%" -T "DISCNUMBER=%cdnumber%" -T "TOTALDISCS=%totalcds%" -T "TOTALTRACKS=%numtracks%" -T "COMMENT=%comment%" %source% -o %dest%
TOC of the extracted CD
Track | Start | Length | Start sector | End sector
---------------------------------------------------------
1 | 0:00.00 | 3:27.39 | 0 | 15563
2 | 3:27.39 | 3:09.47 | 15564 | 29785
3 | 6:37.11 | 2:50.07 | 29786 | 42542
4 | 9:27.18 | 1:57.01 | 42543 | 51318
5 | 11:24.19 | 2:49.11 | 51319 | 64004
6 | 14:13.30 | 3:09.00 | 64005 | 78179
7 | 17:22.30 | 2:39.17 | 78180 | 90121
8 | 20:01.47 | 3:29.50 | 90122 | 105846
9 | 23:31.22 | 2:34.63 | 105847 | 117459
10 | 26:06.10 | 2:29.22 | 117460 | 128656
11 | 28:35.32 | 5:14.20 | 128657 | 152226
12 | 33:49.52 | 9:35.46 | 152227 | 195397
13 | 43:25.23 | 4:44.08 | 195398 | 216705
14 | 48:09.31 | 3:34.09 | 216706 | 232764
15 | 51:43.40 | 2:12.31 | 232765 | 242695
16 | 53:55.71 | 5:51.39 | 242696 | 269059
17 | 59:47.35 | 2:50.56 | 269060 | 281865
18 | 62:38.16 | 7:09.71 | 281866 | 314111
19 | 69:48.12 | 5:35.28 | 314112 | 339264
Track 1
Filename C:\Users\kolia\Desktop\Various Artists - Roots of Funk 1947-1962 (2015) [FLAC]\Roots of Funk 1947-1962 (CD 2)\01 - Early in the Morning.wav
Pre-gap length 0:00:02.00
Peak level 90.7 %
Extraction speed 10.4 X
Track quality 100.0 %
Test CRC 7707455D
Copy CRC 7707455D
Track not present in AccurateRip database
Copy OK
Track 2
Filename C:\Users\kolia\Desktop\Various Artists - Roots of Funk 1947-1962 (2015) [FLAC]\Roots of Funk 1947-1962 (CD 2)\02 - Manteca.wav
Pre-gap length 0:00:01.86
Peak level 85.4 %
Extraction speed 11.1 X
Track quality 100.0 %
Test CRC FEB0EF66
Copy CRC FEB0EF66
Track not present in AccurateRip database
Copy OK
Track 3
Filename C:\Users\kolia\Desktop\Various Artists - Roots of Funk 1947-1962 (2015) [FLAC]\Roots of Funk 1947-1962 (CD 2)\03 - Tin Tin Deo.wav
Pre-gap length 0:00:02.00
Peak level 80.1 %
Extraction speed 11.6 X
Track quality 100.0 %
Test CRC AB75402D
Copy CRC AB75402D
Track not present in AccurateRip database
Copy OK
Track 4
Filename C:\Users\kolia\Desktop\Various Artists - Roots of Funk 1947-1962 (2015) [FLAC]\Roots of Funk 1947-1962 (CD 2)\04 - Moondog's Symphony (Part 1- Timberwolf).wav
Pre-gap length 0:00:02.00
Peak level 84.6 %
Extraction speed 11.7 X
Track quality 100.0 %
Test CRC 13806DE1
Copy CRC 13806DE1
Track not present in AccurateRip database
Copy OK
Track 5
Filename C:\Users\kolia\Desktop\Various Artists - Roots of Funk 1947-1962 (2015) [FLAC]\Roots of Funk 1947-1962 (CD 2)\05 - Yo Yo Yo.wav
Pre-gap length 0:00:02.00
Peak level 84.4 %
Extraction speed 12.5 X
Track quality 100.0 %
Test CRC 677798D2
Copy CRC 677798D2
Track not present in AccurateRip database
Copy OK
Track 6
Filename C:\Users\kolia\Desktop\Various Artists - Roots of Funk 1947-1962 (2015) [FLAC]\Roots of Funk 1947-1962 (CD 2)\06 - Monk's Dream.wav
Pre-gap length 0:00:02.00
Peak level 96.5 %
Extraction speed 13.2 X
Track quality 100.0 %
Test CRC 9DF813B1
Copy CRC 9DF813B1
Track not present in AccurateRip database
Copy OK
Track 7
Filename C:\Users\kolia\Desktop\Various Artists - Roots of Funk 1947-1962 (2015) [FLAC]\Roots of Funk 1947-1962 (CD 2)\07 - Hambone.wav
Pre-gap length 0:00:02.00
Peak level 85.9 %
Extraction speed 13.5 X
Track quality 100.0 %
Test CRC 0CBC6244
Copy CRC 0CBC6244
Track not present in AccurateRip database
Copy OK
Track 8
Filename C:\Users\kolia\Desktop\Various Artists - Roots of Funk 1947-1962 (2015) [FLAC]\Roots of Funk 1947-1962 (CD 2)\08 - Opus de Funk.wav
Pre-gap length 0:00:02.00
Peak level 94.4 %
Extraction speed 14.3 X
Track quality 100.0 %
Test CRC C24933A3
Copy CRC C24933A3
Track not present in AccurateRip database
Copy OK
Track 9
Filename C:\Users\kolia\Desktop\Various Artists - Roots of Funk 1947-1962 (2015) [FLAC]\Roots of Funk 1947-1962 (CD 2)\09 - Montevideo.wav
Pre-gap length 0:00:02.00
Peak level 85.0 %
Extraction speed 14.4 X
Track quality 100.0 %
Test CRC 1EB9AA72
Copy CRC 1EB9AA72
Track not present in AccurateRip database
Copy OK
Track 10
Filename C:\Users\kolia\Desktop\Various Artists - Roots of Funk 1947-1962 (2015) [FLAC]\Roots of Funk 1947-1962 (CD 2)\10 - Old Devil Moon.wav
Pre-gap length 0:00:02.00
Peak level 81.9 %
Extraction speed 14.6 X
Track quality 100.0 %
Test CRC 57A7100C
Copy CRC 57A7100C
Track not present in AccurateRip database
Copy OK
Track 11
Filename C:\Users\kolia\Desktop\Various Artists - Roots of Funk 1947-1962 (2015) [FLAC]\Roots of Funk 1947-1962 (CD 2)\11 - Call for All Demons.wav
Pre-gap length 0:00:02.00
Peak level 92.4 %
Extraction speed 15.9 X
Track quality 100.0 %
Test CRC 9A65560F
Copy CRC 9A65560F
Track not present in AccurateRip database
Copy OK
Track 12
Filename C:\Users\kolia\Desktop\Various Artists - Roots of Funk 1947-1962 (2015) [FLAC]\Roots of Funk 1947-1962 (CD 2)\12 - Moanin'.wav
Pre-gap length 0:00:02.00
Peak level 95.5 %
Extraction speed 17.5 X
Track quality 100.0 %
Test CRC 2A584821
Copy CRC 2A584821
Track not present in AccurateRip database
Copy OK
Track 13
Filename C:\Users\kolia\Desktop\Various Artists - Roots of Funk 1947-1962 (2015) [FLAC]\Roots of Funk 1947-1962 (CD 2)\13 - Slop.wav
Pre-gap length 0:00:02.00
Peak level 82.2 %
Extraction speed 17.8 X
Track quality 100.0 %
Test CRC B8D6E36B
Copy CRC B8D6E36B
Track not present in AccurateRip database
Copy OK
Track 14
Filename C:\Users\kolia\Desktop\Various Artists - Roots of Funk 1947-1962 (2015) [FLAC]\Roots of Funk 1947-1962 (CD 2)\14 - This Here.wav
Pre-gap length 0:00:02.00
Peak level 78.4 %
Extraction speed 15.9 X
Track quality 99.9 %
Test CRC 2416303B
Copy CRC 2416303B
Track not present in AccurateRip database
Copy OK
Track 15
Filename C:\Users\kolia\Desktop\Various Artists - Roots of Funk 1947-1962 (2015) [FLAC]\Roots of Funk 1947-1962 (CD 2)\15 - Hold It.wav
Pre-gap length 0:00:02.00
Peak level 98.4 %
Extraction speed 16.8 X
Track quality 100.0 %
Test CRC 9F0145A4
Copy CRC 9F0145A4
Track not present in AccurateRip database
Copy OK
Track 16
Filename C:\Users\kolia\Desktop\Various Artists - Roots of Funk 1947-1962 (2015) [FLAC]\Roots of Funk 1947-1962 (CD 2)\16 - New Day.wav
Pre-gap length 0:00:02.00
Peak level 83.5 %
Extraction speed 18.5 X
Track quality 100.0 %
Test CRC F95C87FB
Copy CRC F95C87FB
Track not present in AccurateRip database
Copy OK
Track 17
Filename C:\Users\kolia\Desktop\Various Artists - Roots of Funk 1947-1962 (2015) [FLAC]\Roots of Funk 1947-1962 (CD 2)\17 - First Gone.wav
Pre-gap length 0:00:02.00
Peak level 95.6 %
Extraction speed 17.9 X
Track quality 100.0 %
Test CRC D74C80E6
Copy CRC D74C80E6
Track not present in AccurateRip database
Copy OK
Track 18
Filename C:\Users\kolia\Desktop\Various Artists - Roots of Funk 1947-1962 (2015) [FLAC]\Roots of Funk 1947-1962 (CD 2)\18 - Watermelon Man.wav
Pre-gap length 0:00:01.98
Peak level 97.7 %
Extraction speed 18.5 X
Track quality 99.9 %
Test CRC 0E4CFC1C
Copy CRC 0E4CFC1C
Track not present in AccurateRip database
Copy OK
Track 19
Filename C:\Users\kolia\Desktop\Various Artists - Roots of Funk 1947-1962 (2015) [FLAC]\Roots of Funk 1947-1962 (CD 2)\19 - Dem Tambourines.wav
Pre-gap length 0:00:02.00
Peak level 97.9 %
Extraction speed 19.7 X
Track quality 100.0 %
Test CRC B2AB4FC8
Copy CRC B2AB4FC8
Track not present in AccurateRip database
Copy OK
None of the tracks are present in the AccurateRip database
No errors occurred
End of status report
---- CUETools DB Plugin V2.1.6
[CTDB TOCID: w50g1nQtj1x58IMN1F9lfhWXe8o-] disk not present in database
Submit result: w50g1nQtj1x58IMN1F9lfhWXe8o- has been uploaded
==== Log checksum 815539D7F3E29CD58FA6C4DBD0EF9D7C8D3E764AD656BC53FEB4021C2AA2EE0A ====
 
Содержание индексной карты (.CUE)
REM DATE 2015
REM DISCID 1111AB13
REM COMMENT "ExactAudioCopy v1.1"
PERFORMER "Various Artists"
TITLE "Roots of Funk 1947-1962 (CD 2)"
FILE "01 - Early in the Morning.wav" WAVE
TRACK 01 AUDIO
TITLE "Early in the Morning"
PERFORMER "Louis Jordan and His Tympany Five"
ISRC FRX191403334
INDEX 01 00:00:00
TRACK 02 AUDIO
TITLE "Manteca"
PERFORMER "Dizzy Gillespie and His Orchestra"
ISRC FRX191403335
INDEX 00 03:25:49
FILE "02 - Manteca.wav" WAVE
INDEX 01 00:00:00
TRACK 03 AUDIO
TITLE "Tin Tin Deo"
PERFORMER "James Moody and His Bopmen"
ISRC FRX191403336
INDEX 00 03:07:47
FILE "03 - Tin Tin Deo.wav" WAVE
INDEX 01 00:00:00
TRACK 04 AUDIO
TITLE "Moondog's Symphony (Part 1: Timberwolf)"
PERFORMER "Moondog"
ISRC FRX191403337
INDEX 00 02:48:07
FILE "04 - Moondog's Symphony (Part 1- Timberwolf).wav" WAVE
INDEX 01 00:00:00
TRACK 05 AUDIO
TITLE "Yo Yo Yo"
PERFORMER "Slim Gaillard"
ISRC FRX191403338
INDEX 00 01:55:01
FILE "05 - Yo Yo Yo.wav" WAVE
INDEX 01 00:00:00
TRACK 06 AUDIO
TITLE "Monk's Dream"
PERFORMER "Thelonious Monk Trio"
ISRC FRX191403339
INDEX 00 02:47:11
FILE "06 - Monk's Dream.wav" WAVE
INDEX 01 00:00:00
TRACK 07 AUDIO
TITLE "Hambone"
PERFORMER "Red Saunders and His Orchestra with Dolores Hawkins and The Hambone Kids"
ISRC FRX191403340
INDEX 00 03:07:00
FILE "07 - Hambone.wav" WAVE
INDEX 01 00:00:00
TRACK 08 AUDIO
TITLE "Opus de Funk"
PERFORMER "Horace Silver Trio"
ISRC FRX191403341
INDEX 00 02:37:17
FILE "08 - Opus de Funk.wav" WAVE
INDEX 01 00:00:00
TRACK 09 AUDIO
TITLE "Montevideo"
PERFORMER "Duke Ellington"
ISRC FRX191403342
INDEX 00 03:27:50
FILE "09 - Montevideo.wav" WAVE
INDEX 01 00:00:00
TRACK 10 AUDIO
TITLE "Old Devil Moon"
PERFORMER "Mickey Baker"
ISRC FRX191403343
INDEX 00 02:32:63
FILE "10 - Old Devil Moon.wav" WAVE
INDEX 01 00:00:00
TRACK 11 AUDIO
TITLE "Call for All Demons"
PERFORMER "Sun Ra"
ISRC FRX191403344
INDEX 00 02:27:22
FILE "11 - Call for All Demons.wav" WAVE
INDEX 01 00:00:00
TRACK 12 AUDIO
TITLE "Moanin'"
PERFORMER "Art Blakey and The Jazz Messengers"
ISRC FRX191403345
INDEX 00 05:12:20
FILE "12 - Moanin'.wav" WAVE
INDEX 01 00:00:00
TRACK 13 AUDIO
TITLE "Slop"
PERFORMER "Charles Mingus Septet"
ISRC FRX191403346
INDEX 00 09:33:46
FILE "13 - Slop.wav" WAVE
INDEX 01 00:00:00
TRACK 14 AUDIO
TITLE "This Here"
PERFORMER "Bobby Timmons"
ISRC FRX191403347
INDEX 00 04:42:08
FILE "14 - This Here.wav" WAVE
INDEX 01 00:00:00
TRACK 15 AUDIO
TITLE "Hold It"
PERFORMER "James Brown Presents His Band"
ISRC FRX191403348
INDEX 00 03:32:09
FILE "15 - Hold It.wav" WAVE
INDEX 01 00:00:00
TRACK 16 AUDIO
TITLE "New Day"
PERFORMER "Sun Ra"
ISRC FRX191403349
INDEX 00 02:10:31
FILE "16 - New Day.wav" WAVE
INDEX 01 00:00:00
TRACK 17 AUDIO
TITLE "First Gone"
PERFORMER "Count Ossie and The Wareikas"
ISRC FRX191403350
INDEX 00 05:49:39
FILE "17 - First Gone.wav" WAVE
INDEX 01 00:00:00
TRACK 18 AUDIO
TITLE "Watermelon Man"
PERFORMER "Herbie Hancock"
ISRC FRX191403351
INDEX 00 02:48:57
FILE "18 - Watermelon Man.wav" WAVE
INDEX 01 00:00:00
TRACK 19 AUDIO
TITLE "Dem Tambourines"
PERFORMER "Dom Wilkerson"
ISRC FRX191403352
INDEX 00 07:07:71
FILE "19 - Dem Tambourines.wav" WAVE
INDEX 01 00:00:00
 
Лог проверки качества
-----------------------
DON'T MODIFY THIS FILE
-----------------------
PERFORMER: auCDtect Task Manager, ver. 1.5.1RC6 build 1.5.1.7
Copyright (c) 2008-2010 y-soft. All rights reserved
http://y-soft.org
ANALYZER: auCDtect: CD records authenticity detector, version 0.8.2
Copyright (c) 2004 Oleg Berngardt. All rights reserved.
Copyright (c) 2004 Alexander Djourik. All rights reserved.
FILE: 01 - Early in the Morning.flac
Size: 13320067 Hash: 4236C9A3AAB354531D62A8F70D7ADA78 Accuracy: -m8
Conclusion: CDDA 99%
Signature: AA76D687B8F2310E6CEE1D49257B38525ABA2A41
FILE: 02 - Manteca.flac
Size: 13261775 Hash: 0B024845B0DFA20B6B6185E9BD1D9321 Accuracy: -m8
Conclusion: CDDA 100%
Signature: 75041A95DBDD0DA053D8849CC286B9DF1C274CD7
FILE: 03 - Tin Tin Deo.flac
Size: 11443645 Hash: AE4DF464C5C9353FFC7B1A79F6A4ACDA Accuracy: -m8
Conclusion: CDDA 100%
Signature: 011C3A7D4B4DF4975BC5DB00C85A23D070744F20
FILE: 04 - Moondog's Symphony (Part 1- Timberwolf).flac
Size: 8985899 Hash: F1AC249D44F121A6434CF8140F90A03A Accuracy: -m8
Conclusion: CDDA 100%
Signature: 41E3E5A8EB58F97698FB76B268EB879462203C48
FILE: 05 - Yo Yo Yo.flac
Size: 11101369 Hash: DD864067D0663AB2DC496FEC17080B43 Accuracy: -m8
Conclusion: CDDA 100%
Signature: B8E5990F35F7844B844DC152281E489D2B4914B3
FILE: 06 - Monk's Dream.flac
Size: 15776894 Hash: 0ACDA5B8D57694B379CDF6901E7F1312 Accuracy: -m8
Conclusion: CDDA 100%
Signature: A0ADBFB7F06F72F569F586F3FB821524BEBECFF9
FILE: 07 - Hambone.flac
Size: 8585853 Hash: 550BF65DA470FC5F23FEBA4BE8D3765E Accuracy: -m8
Conclusion: CDDA 100%
Signature: CF1D81D64F0BB3040B1FEE34E102785F821D0F23
FILE: 08 - Opus de Funk.flac
Size: 13361492 Hash: 7C91B43EA1B88C9990694D84E94489BF Accuracy: -m8
Conclusion: CDDA 100%
Signature: 8729EC3549CF955F6469380BC3407D3267091E5E
FILE: 09 - Montevideo.flac
Size: 8694471 Hash: FFCEFD7443B97FE785B4500A7D994208 Accuracy: -m8
Conclusion: CDDA 99%
Signature: 036E857F53E1DAD6B14668FAE3F4249E216E56B3
FILE: 10 - Old Devil Moon.flac
Size: 9630815 Hash: C12A003E2A3273269DF989B91DA1422D Accuracy: -m8
Conclusion: CDDA 100%
Signature: D8981CD37AB24DD4DC3B24FAE188946096801F34
FILE: 11 - Call for All Demons.flac
Size: 34616703 Hash: A4C83A3C2D0AB8B4CF01C0C7DB9BB146 Accuracy: -m8
Conclusion: MPEG 95%
Signature: 3012236590DDF285C21108F26502E69AE1F86B07
FILE: 12 - Moanin'.flac
Size: 65028150 Hash: D9B527C551C71376F43003EFCECC76FA Accuracy: -m8
Conclusion: CDDA 100%
Signature: 1DB8159DCD561D1B5605196D9B51EBCEEDC9761E
FILE: 13 - Slop.flac
Size: 34608664 Hash: DCE176ED35696746FD7374F31506B04C Accuracy: -m8
Conclusion: CDDA 99%
Signature: 476CAA975A2BDE5C22422D584D5906167F4361D0
FILE: 14 - This Here.flac
Size: 21290490 Hash: 43C74DB93EF7B261973ED21C342A50C1 Accuracy: -m8
Conclusion: CDDA 100%
Signature: 6F5419A4ABBAFF44F3C64CBEDB0409680184377E
FILE: 15 - Hold It.flac
Size: 9824040 Hash: 52BC3EF69D80AB0DFA4A7DC576E79A7B Accuracy: -m8
Conclusion: CDDA 100%
Signature: E91E65674440D556F7A85E52CA2D5C12BFA1932C
FILE: 16 - New Day.flac
Size: 31889258 Hash: 8BB8A3E69E3A64BBDF29AF7257EA24E7 Accuracy: -m8
Conclusion: CDDA 100%
Signature: 014269DA4C2D9703B0DF3204E9FA7330AA6B2087
FILE: 17 - First Gone.flac
Size: 14168861 Hash: D236404DDECE576B07F2FB4A3A0ED3FF Accuracy: -m8
Conclusion: CDDA 100%
Signature: AA5D927877529B64F0A4FC912777ECF09C55BEE3
FILE: 18 - Watermelon Man.flac
Size: 52040784 Hash: 22C44C50A45947C8B14B728A2AFD98B8 Accuracy: -m8
Conclusion: CDDA 99%
Signature: 43E96C3DD22E8C75E65C99F974038D856CD8DDCC
FILE: 19 - Dem Tambourines.flac
Size: 40927523 Hash: 331F9A01E1780DCAFB52550BAC2A0942 Accuracy: -m8
Conclusion: CDDA 100%
Signature: 81AF704F672D91DBC6FAB0D7EBA024B2E0AC7971
 
Динамический диапазон
foobar2000 1.2.8 / Dynamic Range Meter 1.1.1
log date: 2015-09-02 21:59:15
--------------------------------------------------------------------------------
Analyzed: Art Blakey and The Jazz Messengers / Roots of Funk 1947-1962 (1)
Bobby Timmons / Roots of Funk 1947-1962 (2)
Charles Mingus Septet / Roots of Funk 1947-1962 (3)
Count Ossie and The Wareikas / Roots of Funk 1947-1962 (4)
Dizzy Gillespie and His Orchestra / Roots of Funk 1947-1962 (5)
Don Wilkerson / Roots of Funk 1947-1962 (6)
Duke Ellington / Roots of Funk 1947-1962 (7)
Herbie Hancock / Roots of Funk 1947-1962 (8)
Horace Silver Trio / Roots of Funk 1947-1962 (9)
James Brown Presents His Band / Roots of Funk 1947-1962 (10)
James Moody and His Bopmen / Roots of Funk 1947-1962 (11)
Louis Jordan and His Tympany Five / Roots of Funk 1947-1962 (12)
Mickey Baker / Roots of Funk 1947-1962 (13)
Moondog / Roots of Funk 1947-1962 (14)
Red Saunders and His Orchestra with Dolores Hawkins and The Hambone Kids / Roots of Funk 1947-1962 (15)
Slim Gaillard / Roots of Funk 1947-1962 (16)
Sun Ra / Roots of Funk 1947-1962 (17-18)
Thelonious Monk Trio / Roots of Funk 1947-1962 (19)
--------------------------------------------------------------------------------
DR Peak RMS Duration Track
--------------------------------------------------------------------------------
DR14 -0.40 dB -17.81 dB 9:36 12-Moanin'
DR12 -2.11 dB -16.69 dB 3:34 14-This Here
DR14 -1.70 dB -18.64 dB 4:44 13-Slop
DR14 -0.38 dB -14.90 dB 2:51 17-First Gone
DR10 -1.37 dB -14.50 dB 3:10 02-Manteca
DR11 -0.18 dB -13.24 dB 5:35 19-Dem Tambourines
DR12 -1.41 dB -16.64 dB 2:35 09-Montevideo
DR11 -0.20 dB -13.75 dB 7:10 18-Watermelon Man
DR15 -0.50 dB -18.13 dB 3:30 08-Opus de Funk
DR15 -0.14 dB -16.81 dB 2:12 15-Hold It
DR12 -1.93 dB -15.90 dB 2:50 03-Tin Tin Deo
DR11 -0.84 dB -13.99 dB 3:28 01-Early in the Morning
DR12 -1.73 dB -16.40 dB 2:29 10-Old Devil Moon
DR15 -1.44 dB -18.51 dB 1:57 04-Moondog's Symphony (Part 1: Timberwolf)
DR11 -1.32 dB -14.44 dB 2:39 07-Hambone
DR11 -1.47 dB -14.80 dB 2:49 05-Yo Yo Yo
DR14 -0.68 dB -17.40 dB 5:14 11-Call for All Demons
DR13 -1.57 dB -18.76 dB 5:52 16-New Day
DR12 -0.31 dB -13.68 dB 3:09 06-Monk's Dream
--------------------------------------------------------------------------------
Number of tracks: 19
Official DR value: DR13
Samplerate: 44100 Hz
Channels: 2
Bits per sample: 16
Bitrate: 663 kbps
Codec: FLAC
================================================================================
 
CD 3 [01:09:40]
01. Professor Longhair and His Shuffling Hungarians - Mardis Gras in New Orleans [2:55]
02. The Blind Boys of Alabama - I've Got a Home [2:15]
03. Johnny 'Guitar' Watson - Half Pint of Whiskey [3:15]
04. The Hawketts W/ Art Neville - Mardi Gras Mambo [2:20]
05. Bo Diddley - Bo Diddley [2:33]
06. Dave Bartholomew - Shrimp and Gumbo [2:12]
07. Boogaloo and The Gallant Crew - Clothes Line (Wrap It Up) [Shoppin' for Clothes] [2:26]
08. Ray Charles & Milt Jackson - Blue Funk [8:10]
09. Nina Simone - My Baby Just Cares for Me [3:39]
10. Art Neville - Cha Dooky-Doo [2:36]
11. Elvis Presley & Kitty White - Crawfish [1:52]
12. Art Neville - Arabian Love Call [2:26]
13. Carla & Rufus - 'Cause I Love You [2:46]
14. Bo Diddley - Signifying Blues [4:30]
15. Howlin' Wolf - Back Door Man [2:53]
16. James Brown - And I Do Just What I Want [2:27]
17. Bo Diddley - Can You Shimmy? [2:47]
18. Lee Dorsey - Messed Around (and Fell in Love) [2:27]
19. Eddie Bo - Check Mr. Popeye (Part 1) [2:17]
20. Eddie Bo - Now Let's Popeye (Part 2) [2:40]
21. Yvonne Fair and The James Brown Band - I Found You [I Got You (I Feel Good)] [2:29]
22. James Brown and His Famous Flames - Mashed Patatoes U.S.A. [2:53]
23. James Brown and His Famous Flames - I've Got Money [2:34]
24. Eddie Bo - Roamin' - Itis [2:17]
 
Лог создания рипа
Exact Audio Copy V1.1 from 23. June 2015
EAC extraction logfile from 1. September 2015, 11:53
Various Artists / Roots of Funk 1947-1962 (CD 3)
Used drive : hp BD ROM BC-5541H Adapter: 1 ID: 0
Read mode : Secure
Utilize accurate stream : Yes
Defeat audio cache : Yes
Make use of C2 pointers : No
Read offset correction : 48
Overread into Lead-In and Lead-Out : No
Fill up missing offset samples with silence : Yes
Delete leading and trailing silent blocks : No
Null samples used in CRC calculations : Yes
Used interface : Native Win32 interface for Win NT & 2000
Gap handling : Appended to previous track
Used output format : User Defined Encoder
Selected bitrate : 1024 kBit/s
Quality : High
Add ID3 tag : No
Command line compressor : C:\Program Files (x86)\Exact Audio Copy\Flac\flac.exe
Additional command line options : -8 -V -T "ARTIST=%artist%" -T "TITLE=%title%" -T "ALBUM=%albumtitle%" -T "DATE=%year%" -T "TRACKNUMBER=%tracknr%" -T "GENRE=%genre%" -T "PERFORMER=%albuminterpret%" -T "COMPOSER=%composer%" %haslyrics%--tag-from-file=LYRICS="%lyricsfile%"%haslyrics% -T "ALBUMARTIST=%albumartist%" -T "DISCNUMBER=%cdnumber%" -T "TOTALDISCS=%totalcds%" -T "TOTALTRACKS=%numtracks%" -T "COMMENT=%comment%" %source% -o %dest%
TOC of the extracted CD
Track | Start | Length | Start sector | End sector
---------------------------------------------------------
1 | 0:00.00 | 2:55.15 | 0 | 13139
2 | 2:55.15 | 2:14.70 | 13140 | 23259
3 | 5:10.10 | 3:15.22 | 23260 | 37906
4 | 8:25.32 | 2:20.06 | 37907 | 48412
5 | 10:45.38 | 2:32.45 | 48413 | 59857
6 | 13:18.08 | 2:11.43 | 59858 | 69725
7 | 15:29.51 | 2:26.29 | 69726 | 80704
8 | 17:56.05 | 8:09.51 | 80705 | 117430
9 | 26:05.56 | 3:39.00 | 117431 | 133855
10 | 29:44.56 | 2:36.14 | 133856 | 145569
11 | 32:20.70 | 1:52.01 | 145570 | 153970
12 | 34:12.71 | 2:26.16 | 153971 | 164936
13 | 36:39.12 | 2:46.24 | 164937 | 177410
14 | 39:25.36 | 4:30.13 | 177411 | 197673
15 | 43:55.49 | 2:52.56 | 197674 | 210629
16 | 46:48.30 | 2:27.09 | 210630 | 221663
17 | 49:15.39 | 2:47.26 | 221664 | 234214
18 | 52:02.65 | 2:26.70 | 234215 | 245234
19 | 54:29.60 | 2:16.64 | 245235 | 255498
20 | 56:46.49 | 2:40.31 | 255499 | 267529
21 | 59:27.05 | 2:28.48 | 267530 | 278677
22 | 61:55.53 | 2:53.22 | 278678 | 291674
23 | 64:49.00 | 2:33.74 | 291675 | 303223
24 | 67:22.74 | 2:17.34 | 303224 | 313532
Track 1
Filename C:\Users\kolia\Desktop\Various Artists - Roots of Funk 1947-1962 (2015) [FLAC]\Roots of Funk 1947-1962 (CD 3)\01 - Mardis Gras in New Orleans.wav
Pre-gap length 0:00:02.00
Peak level 90.2 %
Extraction speed 10.2 X
Track quality 100.0 %
Test CRC B5BE246E
Copy CRC B5BE246E
Track not present in AccurateRip database
Copy OK
Track 2
Filename C:\Users\kolia\Desktop\Various Artists - Roots of Funk 1947-1962 (2015) [FLAC]\Roots of Funk 1947-1962 (CD 3)\02 - I've Got a Home.wav
Pre-gap length 0:00:02.00
Peak level 98.9 %
Extraction speed 10.6 X
Track quality 100.0 %
Test CRC 5A248A8A
Copy CRC 5A248A8A
Track not present in AccurateRip database
Copy OK
Track 3
Filename C:\Users\kolia\Desktop\Various Artists - Roots of Funk 1947-1962 (2015) [FLAC]\Roots of Funk 1947-1962 (CD 3)\03 - Half Pint of Whiskey.wav
Pre-gap length 0:00:02.00
Peak level 82.2 %
Extraction speed 11.5 X
Track quality 100.0 %
Test CRC 7413F86C
Copy CRC 7413F86C
Track not present in AccurateRip database
Copy OK
Track 4
Filename C:\Users\kolia\Desktop\Various Artists - Roots of Funk 1947-1962 (2015) [FLAC]\Roots of Funk 1947-1962 (CD 3)\04 - Mardi Gras Mambo.wav
Pre-gap length 0:00:02.00
Peak level 94.1 %
Extraction speed 10.4 X
Track quality 99.9 %
Test CRC F5196F61
Copy CRC F5196F61
Track not present in AccurateRip database
Copy OK
Track 5
Filename C:\Users\kolia\Desktop\Various Artists - Roots of Funk 1947-1962 (2015) [FLAC]\Roots of Funk 1947-1962 (CD 3)\05 - Bo Diddley.wav
Pre-gap length 0:00:02.00
Peak level 85.3 %
Extraction speed 12.3 X
Track quality 100.0 %
Test CRC D2F6FA8A
Copy CRC D2F6FA8A
Track not present in AccurateRip database
Copy OK
Track 6
Filename C:\Users\kolia\Desktop\Various Artists - Roots of Funk 1947-1962 (2015) [FLAC]\Roots of Funk 1947-1962 (CD 3)\06 - Shrimp and Gumbo.wav
Pre-gap length 0:00:02.00
Peak level 87.0 %
Extraction speed 12.6 X
Track quality 100.0 %
Test CRC 5760E448
Copy CRC 5760E448
Track not present in AccurateRip database
Copy OK
Track 7
Filename C:\Users\kolia\Desktop\Various Artists - Roots of Funk 1947-1962 (2015) [FLAC]\Roots of Funk 1947-1962 (CD 3)\07 - Clothes Line (Wrap It Up) [Shoppin' for Clothes].wav
Pre-gap length 0:00:02.00
Peak level 89.0 %
Extraction speed 11.6 X
Track quality 99.9 %
Test CRC D8596351
Copy CRC D8596351
Track not present in AccurateRip database
Copy OK
Track 8
Filename C:\Users\kolia\Desktop\Various Artists - Roots of Funk 1947-1962 (2015) [FLAC]\Roots of Funk 1947-1962 (CD 3)\08 - Blue Funk.wav
Pre-gap length 0:00:02.00
Peak level 95.7 %
Extraction speed 14.5 X
Track quality 99.9 %
Test CRC 84C40AAF
Copy CRC 84C40AAF
Track not present in AccurateRip database
Copy OK
Track 9
Filename C:\Users\kolia\Desktop\Various Artists - Roots of Funk 1947-1962 (2015) [FLAC]\Roots of Funk 1947-1962 (CD 3)\09 - My Baby Just Cares for Me.wav
Pre-gap length 0:00:02.00
Peak level 90.4 %
Extraction speed 15.2 X
Track quality 100.0 %
Test CRC 357B3F1E
Copy CRC 357B3F1E
Track not present in AccurateRip database
Copy OK
Track 10
Filename C:\Users\kolia\Desktop\Various Artists - Roots of Funk 1947-1962 (2015) [FLAC]\Roots of Funk 1947-1962 (CD 3)\10 - Cha Dooky-Doo.wav
Pre-gap length 0:00:02.00
Peak level 88.3 %
Extraction speed 15.0 X
Track quality 100.0 %
Test CRC 8A490626
Copy CRC 8A490626
Track not present in AccurateRip database
Copy OK
Track 11
Filename C:\Users\kolia\Desktop\Various Artists - Roots of Funk 1947-1962 (2015) [FLAC]\Roots of Funk 1947-1962 (CD 3)\11 - Crawfish.wav
Pre-gap length 0:00:02.00
Peak level 95.8 %
Extraction speed 14.6 X
Track quality 100.0 %
Test CRC 720E248D
Copy CRC 720E248D
Track not present in AccurateRip database
Copy OK
Track 12
Filename C:\Users\kolia\Desktop\Various Artists - Roots of Funk 1947-1962 (2015) [FLAC]\Roots of Funk 1947-1962 (CD 3)\12 - Arabian Love Call.wav
Pre-gap length 0:00:02.00
Peak level 96.2 %
Extraction speed 15.4 X
Track quality 100.0 %
Test CRC B7292234
Copy CRC B7292234
Track not present in AccurateRip database
Copy OK
Track 13
Filename C:\Users\kolia\Desktop\Various Artists - Roots of Funk 1947-1962 (2015) [FLAC]\Roots of Funk 1947-1962 (CD 3)\13 - 'Cause I Love You.wav
Pre-gap length 0:00:02.00
Peak level 84.2 %
Extraction speed 14.2 X
Track quality 99.9 %
Test CRC 2C7876F1
Copy CRC 2C7876F1
Track not present in AccurateRip database
Copy OK
Track 14
Filename C:\Users\kolia\Desktop\Various Artists - Roots of Funk 1947-1962 (2015) [FLAC]\Roots of Funk 1947-1962 (CD 3)\14 - Bo Diddley.wav
Pre-gap length 0:00:02.00
Peak level 93.0 %
Extraction speed 17.2 X
Track quality 100.0 %
Test CRC BBA274D9
Copy CRC BBA274D9
Track not present in AccurateRip database
Copy OK
Track 15
Filename C:\Users\kolia\Desktop\Various Artists - Roots of Funk 1947-1962 (2015) [FLAC]\Roots of Funk 1947-1962 (CD 3)\15 - Back Door Man.wav
Pre-gap length 0:00:02.00
Peak level 95.9 %
Extraction speed 16.7 X
Track quality 100.0 %
Test CRC FEA3A822
Copy CRC FEA3A822
Track not present in AccurateRip database
Copy OK
Track 16
Filename C:\Users\kolia\Desktop\Various Artists - Roots of Funk 1947-1962 (2015) [FLAC]\Roots of Funk 1947-1962 (CD 3)\16 - And I Do Just What I Want.wav
Pre-gap length 0:00:02.00
Peak level 95.7 %
Extraction speed 16.7 X
Track quality 100.0 %
Test CRC 8DDB8800
Copy CRC 8DDB8800
Track not present in AccurateRip database
Copy OK
Track 17
Filename C:\Users\kolia\Desktop\Various Artists - Roots of Funk 1947-1962 (2015) [FLAC]\Roots of Funk 1947-1962 (CD 3)\17 - Can You Shimmy.wav
Pre-gap length 0:00:02.00
Peak level 85.7 %
Extraction speed 17.1 X
Track quality 100.0 %
Test CRC BF78A6A5
Copy CRC BF78A6A5
Track not present in AccurateRip database
Copy OK
Track 18
Filename C:\Users\kolia\Desktop\Various Artists - Roots of Funk 1947-1962 (2015) [FLAC]\Roots of Funk 1947-1962 (CD 3)\18 - Messed Around (and Fell in Love).wav
Pre-gap length 0:00:02.00
Peak level 85.2 %
Extraction speed 16.9 X
Track quality 100.0 %
Test CRC 982F3F46
Copy CRC 982F3F46
Track not present in AccurateRip database
Copy OK
Track 19
Filename C:\Users\kolia\Desktop\Various Artists - Roots of Funk 1947-1962 (2015) [FLAC]\Roots of Funk 1947-1962 (CD 3)\19 - Check Mr. Popeye (Part 1).wav
Pre-gap length 0:00:02.00
Peak level 79.3 %
Extraction speed 16.8 X
Track quality 100.0 %
Test CRC FBA38101
Copy CRC FBA38101
Track not present in AccurateRip database
Copy OK
Track 20
Filename C:\Users\kolia\Desktop\Various Artists - Roots of Funk 1947-1962 (2015) [FLAC]\Roots of Funk 1947-1962 (CD 3)\20 - Now Let's Popeye (Part 2).wav
Pre-gap length 0:00:02.00
Peak level 82.1 %
Extraction speed 17.5 X
Track quality 100.0 %
Test CRC D86FC3FB
Copy CRC D86FC3FB
Track not present in AccurateRip database
Copy OK
Track 21
Filename C:\Users\kolia\Desktop\Various Artists - Roots of Funk 1947-1962 (2015) [FLAC]\Roots of Funk 1947-1962 (CD 3)\21 - I Found You [I Got You (I Feel Good)].wav
Pre-gap length 0:00:02.00
Peak level 82.7 %
Extraction speed 12.4 X
Track quality 100.0 %
Test CRC 5739E098
Copy CRC 5739E098
Track not present in AccurateRip database
Copy OK
Track 22
Filename C:\Users\kolia\Desktop\Various Artists - Roots of Funk 1947-1962 (2015) [FLAC]\Roots of Funk 1947-1962 (CD 3)\22 - Mashed Patatoes U.S.A..wav
Pre-gap length 0:00:02.00
Peak level 87.1 %
Extraction speed 7.7 X
Track quality 99.9 %
Test CRC 299CEFAF
Copy CRC 299CEFAF
Track not present in AccurateRip database
Copy OK
Track 23
Filename C:\Users\kolia\Desktop\Various Artists - Roots of Funk 1947-1962 (2015) [FLAC]\Roots of Funk 1947-1962 (CD 3)\23 - I've Got Money.wav
Pre-gap length 0:00:02.00
Peak level 85.4 %
Extraction speed 11.0 X
Track quality 100.0 %
Test CRC EEE9A658
Copy CRC EEE9A658
Track not present in AccurateRip database
Copy OK
Track 24
Filename C:\Users\kolia\Desktop\Various Artists - Roots of Funk 1947-1962 (2015) [FLAC]\Roots of Funk 1947-1962 (CD 3)\24 - Roamin' - Itis.wav
Pre-gap length 0:00:02.00
Peak level 85.3 %
Extraction speed 9.0 X
Track quality 99.9 %
Test CRC 74902DAF
Copy CRC 74902DAF
Track not present in AccurateRip database
Copy OK
None of the tracks are present in the AccurateRip database
No errors occurred
End of status report
---- CUETools DB Plugin V2.1.6
[CTDB TOCID: 5Fd1TQIBgXJ2hYyIuj9nTf9VgNI-] disk not present in database
Submit result: 5Fd1TQIBgXJ2hYyIuj9nTf9VgNI- has been uploaded
==== Log checksum 945485C05180125980643354711FDDB8F80F94391627687755D5903207C94FEB ====
 
Содержание индексной карты (.CUE)
REM DATE 2015
REM DISCID 59105418
REM COMMENT "ExactAudioCopy v1.1"
PERFORMER "Various Artists"
TITLE "Roots of Funk 1947-1962 (CD 3)"
FILE "01 - Mardis Gras in New Orleans.wav" WAVE
TRACK 01 AUDIO
TITLE "Mardis Gras in New Orleans"
PERFORMER "Professor Longhair and His Shuffling Hungarians"
ISRC FRX191403353
INDEX 01 00:00:00
TRACK 02 AUDIO
TITLE "I've Got a Home"
PERFORMER "The Blind Boys of Alabama"
ISRC FRX191403354
INDEX 00 02:53:15
FILE "02 - I've Got a Home.wav" WAVE
INDEX 01 00:00:00
TRACK 03 AUDIO
TITLE "Half Pint of Whiskey"
PERFORMER "Johnny 'Guitar' Watson"
ISRC FRX191403355
INDEX 00 02:12:70
FILE "03 - Half Pint of Whiskey.wav" WAVE
INDEX 01 00:00:00
TRACK 04 AUDIO
TITLE "Mardi Gras Mambo"
PERFORMER "The Hawketts W/ Art Neville"
ISRC FRX191403356
INDEX 00 03:13:22
FILE "04 - Mardi Gras Mambo.wav" WAVE
INDEX 01 00:00:00
TRACK 05 AUDIO
TITLE "Bo Diddley"
PERFORMER "Bo Diddley"
ISRC FRX191403357
INDEX 00 02:18:06
FILE "05 - Bo Diddley.wav" WAVE
INDEX 01 00:00:00
TRACK 06 AUDIO
TITLE "Shrimp and Gumbo"
PERFORMER "Dave Bartholomew"
ISRC FRX191403358
INDEX 00 02:30:45
FILE "06 - Shrimp and Gumbo.wav" WAVE
INDEX 01 00:00:00
TRACK 07 AUDIO
TITLE "Clothes Line (Wrap It Up) [Shoppin' for Clothes]"
PERFORMER "Boogaloo and The Gallant Crew"
ISRC FRX191403359
INDEX 00 02:09:43
FILE "07 - Clothes Line (Wrap It Up) [Shoppin' for Clothes].wav" WAVE
INDEX 01 00:00:00
TRACK 08 AUDIO
TITLE "Blue Funk"
PERFORMER "Ray Charles & Milt Jackson"
ISRC FRX191403360
INDEX 00 02:24:29
FILE "08 - Blue Funk.wav" WAVE
INDEX 01 00:00:00
TRACK 09 AUDIO
TITLE "My Baby Just Cares for Me"
PERFORMER "Nina Simone"
ISRC FRX191403361
INDEX 00 08:07:51
FILE "09 - My Baby Just Cares for Me.wav" WAVE
INDEX 01 00:00:00
TRACK 10 AUDIO
TITLE "Cha Dooky-Doo"
PERFORMER "Art Neville"
ISRC FRX191403362
INDEX 00 03:37:00
FILE "10 - Cha Dooky-Doo.wav" WAVE
INDEX 01 00:00:00
TRACK 11 AUDIO
TITLE "Crawfish"
PERFORMER "Elvis Presley & Kitty White"
ISRC FRX191403363
INDEX 00 02:34:14
FILE "11 - Crawfish.wav" WAVE
INDEX 01 00:00:00
TRACK 12 AUDIO
TITLE "Arabian Love Call"
PERFORMER "Art Neville"
ISRC FRX191403364
INDEX 00 01:50:01
FILE "12 - Arabian Love Call.wav" WAVE
INDEX 01 00:00:00
TRACK 13 AUDIO
TITLE "'Cause I Love You"
PERFORMER "Carla & Rufus"
ISRC FRX191403365
INDEX 00 02:24:16
FILE "13 - 'Cause I Love You.wav" WAVE
INDEX 01 00:00:00
TRACK 14 AUDIO
TITLE "Signifying Blues"
PERFORMER "Bo Diddley"
ISRC FRX191403366
INDEX 00 02:44:24
FILE "14 - Signifying Blues.wav" WAVE
INDEX 01 00:00:00
TRACK 15 AUDIO
TITLE "Back Door Man"
PERFORMER "Howlin' Wolf"
ISRC FRX191403367
INDEX 00 04:28:13
FILE "15 - Back Door Man.wav" WAVE
INDEX 01 00:00:00
TRACK 16 AUDIO
TITLE "And I Do Just What I Want"
PERFORMER "James Brown"
ISRC FRX191403368
INDEX 00 02:50:56
FILE "16 - And I Do Just What I Want.wav" WAVE
INDEX 01 00:00:00
TRACK 17 AUDIO
TITLE "Can You Shimmy?"
PERFORMER "Bo Diddley"
ISRC FRX191403369
INDEX 00 02:25:09
FILE "17 - Can You Shimmy.wav" WAVE
INDEX 01 00:00:00
TRACK 18 AUDIO
TITLE "Messed Around (and Fell in Love)"
PERFORMER "Lee Dorsey"
ISRC FRX191403370
INDEX 00 02:45:26
FILE "18 - Messed Around (and Fell in Love).wav" WAVE
INDEX 01 00:00:00
TRACK 19 AUDIO
TITLE "Check Mr. Popeye (Part 1)"
PERFORMER "Eddie Bo"
ISRC FRX191403371
INDEX 00 02:24:70
FILE "19 - Check Mr. Popeye (Part 1).wav" WAVE
INDEX 01 00:00:00
TRACK 20 AUDIO
TITLE "Now Let's Popeye (Part 2)"
PERFORMER "Eddie Bo"
ISRC FRX191403372
INDEX 00 02:14:64
FILE "20 - Now Let's Popeye (Part 2).wav" WAVE
INDEX 01 00:00:00
TRACK 21 AUDIO
TITLE "I Found You [I Got You (I Feel Good)]"
PERFORMER "Yvonne Fair and The James Brown Band"
ISRC FRX191403373
INDEX 00 02:38:31
FILE "21 - I Found You [I Got You (I Feel Good)].wav" WAVE
INDEX 01 00:00:00
TRACK 22 AUDIO
TITLE "Mashed Patatoes U.S.A."
PERFORMER "James Brown and His Famous Flames"
ISRC FRX191403374
INDEX 00 02:26:48
FILE "22 - Mashed Patatoes U.S.A..wav" WAVE
INDEX 01 00:00:00
TRACK 23 AUDIO
TITLE "I've Got Money"
PERFORMER "James Brown and His Famous Flames"
ISRC FRX191403375
INDEX 00 02:51:22
FILE "23 - I've Got Money.wav" WAVE
INDEX 01 00:00:00
TRACK 24 AUDIO
TITLE "Roamin' - Itis"
PERFORMER "Eddie Bo"
ISRC FRX191403376
INDEX 00 02:31:74
FILE "24 - Roamin' - Itis.wav" WAVE
INDEX 01 00:00:00
 
Лог проверки качества
-----------------------
DON'T MODIFY THIS FILE
-----------------------
PERFORMER: auCDtect Task Manager, ver. 1.5.1RC6 build 1.5.1.7
Copyright (c) 2008-2010 y-soft. All rights reserved
http://y-soft.org
ANALYZER: auCDtect: CD records authenticity detector, version 0.8.2
Copyright (c) 2004 Oleg Berngardt. All rights reserved.
Copyright (c) 2004 Alexander Djourik. All rights reserved.
FILE: 01 - Mardis Gras in New Orleans.flac
Size: 11244621 Hash: C5DE52329C4C4ECAF6A361B775C87985 Accuracy: -m8
Conclusion: CDDA 100%
Signature: 5981A1106B19D7C3B9CE890F7DC8E1319B30AE78
FILE: 02 - I've Got a Home.flac
Size: 14065823 Hash: 87198D0A965197F9D38C509C81B45480 Accuracy: -m8
Conclusion: CDDA 100%
Signature: D1B622A758169506E11FB2D2CAC1DC76F65A41F7
FILE: 03 - Half Pint of Whiskey.flac
Size: 15022383 Hash: B7A0C0842D70CFAF088974A08EC3EBFA Accuracy: -m8
Conclusion: CDDA 100%
Signature: 8F02EA7AC67174D77C800FEA948B1B438E62F8C8
FILE: 04 - Mardi Gras Mambo.flac
Size: 9385290 Hash: 8CBC2D9352F59B8850ED619B36EC736F Accuracy: -m8
Conclusion: CDDA 100%
Signature: 736D58CF527D23B2A3B27AD6E8E02883F7FFBD09
FILE: 05 - Bo Diddley.flac
Size: 10680595 Hash: 4F38FE7B8C72CE9C4809B8008308862F Accuracy: -m8
Conclusion: CDDA 100%
Signature: FF119AB85C4D0FFFF9248313AE2EEFAEF706D241
FILE: 06 - Shrimp and Gumbo.flac
Size: 7390257 Hash: CB66244557587AEB750ACDED5635491D Accuracy: -m8
Conclusion: CDDA 100%
Signature: 34F93371E72DBA1C675DC8A3FE12347063ECC6BD
FILE: 07 - Clothes Line (Wrap It Up) [Shoppin' for Clothes].flac
Size: 10697263 Hash: 61149BA33CF8E0DBA4998F548883DB77 Accuracy: -m8
Conclusion: CDDA 100%
Signature: 07D263912C6489C6F2C35769E9C46F50FCB7CEF0
FILE: 08 - Blue Funk.flac
Size: 29120383 Hash: B884697FC8CEEDE361FF94E5C1048984 Accuracy: -m8
Conclusion: CDDA 99%
Signature: 9081BD22DCD8D0A3C8191FC6D8573EA10B113FA0
FILE: 09 - My Baby Just Cares for Me.flac
Size: 19269349 Hash: 9D4307F06F442A1A9DBD559A7AD19AFB Accuracy: -m8
Conclusion: CDDA 100%
Signature: 66D5A160E59D9EDA4834E0871527D34368B945F5
FILE: 10 - Cha Dooky-Doo.flac
Size: 10318220 Hash: B84DCE77908CF48B8810B82B93A77ABD Accuracy: -m8
Conclusion: CDDA 100%
Signature: 9784977DAE4A2B4989E55A4F2109EEC8BEA8B8CA
FILE: 11 - Crawfish.flac
Size: 8682153 Hash: 1236A3D162BDF5130E4F9EDABE74412D Accuracy: -m8
Conclusion: CDDA 100%
Signature: 17049BDC44F34871761B2F78AD09A17E69E87AAE
FILE: 12 - Arabian Love Call.flac
Size: 12079776 Hash: 289E1B106C39EB6CF57F4B7B61B4C33B Accuracy: -m8
Conclusion: CDDA 100%
Signature: 383516E65C9B584834184FEDD9F95021633A758B
FILE: 13 - 'Cause I Love You.flac
Size: 17564840 Hash: 417C9B2DA139CB03EF42987071BAFFA3 Accuracy: -m8
Conclusion: CDDA 100%
Signature: 7F20C4CC0A63448278DA9F5A27AE81AF33CFA521
FILE: 14 - Signifying Blues.flac
Size: 29869044 Hash: 388021A54776577FDEE3E21DCD9A8206 Accuracy: -m8
Conclusion: CDDA 99%
Signature: EB06F357BEB5221C9FF758097708EEAE66A030BA
FILE: 15 - Back Door Man.flac
Size: 15934666 Hash: BCF7F8350E50430F7747448685305ADE Accuracy: -m8
Conclusion: CDDA 100%
Signature: CD4F0825FF44C522847161DE7BAE2FF9E150F9A4
FILE: 16 - And I Do Just What I Want.flac
Size: 11321156 Hash: 3FFB34DD08EC52C176B4CFBBC21FABA7 Accuracy: -m8
Conclusion: CDDA 100%
Signature: F7DB36F24F3678E170C8442A15D8C9EEF6CEC58A
FILE: 17 - Can You Shimmy.flac
Size: 13428843 Hash: 82AD51C1356200BF510F5132EB54E4D8 Accuracy: -m8
Conclusion: CDDA 100%
Signature: 8D6147EBF796968D3B3610AF116AA57131C9641B
FILE: 18 - Messed Around (and Fell in Love).flac
Size: 10839895 Hash: 454B2290B4444C3844C1A8151182A8D6 Accuracy: -m8
Conclusion: CDDA 100%
Signature: 8153FC20FD2824905490EAD42999086F9B4081D3
FILE: 19 - Check Mr. Popeye (Part 1).flac
Size: 10744345 Hash: 72EDEDF3BE879A1FBCC86C4B8333133F Accuracy: -m8
Conclusion: CDDA 99%
Signature: F4B831FE223DB2A6D601956636749A6F246323B3
FILE: 20 - Now Let's Popeye (Part 2).flac
Size: 13883058 Hash: 42331C8EF70C82E85094A1C9A339D512 Accuracy: -m8
Conclusion: CDDA 100%
Signature: E21DCD1C173F91BAFB6A03D8F9899D3A6B543934
FILE: 21 - I Found You [I Got You (I Feel Good)].flac
Size: 11810979 Hash: 5486EB0534BD747DF3A3D0B925569947 Accuracy: -m8
Conclusion: CDDA 92%
Signature: 6BC490E1DC3E9B74AEBB0C2B1C85EF545BDFF6F0
FILE: 22 - Mashed Patatoes U.S.A..flac
Size: 16306043 Hash: C4330030B2071D0B5D362748544A83D1 Accuracy: -m8
Conclusion: CDDA 100%
Signature: 63718164A4AF792FDAD753988A2C3A5F444B4D1F
FILE: 23 - I've Got Money.flac
Size: 14824880 Hash: 2B81EA63EE8119F19CE8BD06A3BF95B7 Accuracy: -m8
Conclusion: CDDA 99%
Signature: 37B99C11544E9F21ADF790305344FE7399D4CB44
FILE: 24 - Roamin' - Itis.flac
Size: 11898811 Hash: 3ED12C336F0111B5382EC41DE329482B Accuracy: -m8
Conclusion: CDDA 100%
Signature: 15C9869193327A84C0637C64609D3AA8DFDCDDCA
 
Динамический диапазон
foobar2000 1.2.8 / Dynamic Range Meter 1.1.1
log date: 2015-09-02 21:58:28
--------------------------------------------------------------------------------
Analyzed: Art Neville / Roots of Funk 1947-1962 (1-2)
Bo Diddley / Roots of Funk 1947-1962 (3-5)
Boogaloo and The Gallant Crew / Roots of Funk 1947-1962 (6)
Carla & Rufus / Roots of Funk 1947-1962 (7)
Dave Bartholomew / Roots of Funk 1947-1962 (8)
Eddie Bo / Roots of Funk 1947-1962 (9-11)
Elvis Presley & Kitty White / Roots of Funk 1947-1962 (12)
Howlin' Wolf / Roots of Funk 1947-1962 (13)
James Brown and His Famous Flames / Roots of Funk 1947-1962 (14-15)
James Brown / Roots of Funk 1947-1962 (16)
Johnny 'Guitar' Watson / Roots of Funk 1947-1962 (17)
Lee Dorsey / Roots of Funk 1947-1962 (18)
Nina Simone / Roots of Funk 1947-1962 (19)
Professor Longhair and His Shuffling Hungarians / Roots of Funk 1947-1962 (20)
Ray Charles & Milt Jackson / Roots of Funk 1947-1962 (21)
The Blind Boys of Alabama / Roots of Funk 1947-1962 (22)
The Hawketts W/ Art Neville / Roots of Funk 1947-1962 (23)
Yvonne Fair and The James Brown Band / Roots of Funk 1947-1962 (24)
--------------------------------------------------------------------------------
DR Peak RMS Duration Track
--------------------------------------------------------------------------------
DR13 -1.08 dB -16.36 dB 2:36 10-Cha Dooky-Doo
DR11 -0.34 dB -13.08 dB 2:26 12-Arabian Love Call
DR12 -1.38 dB -14.18 dB 2:33 05-Bo Diddley
DR12 -0.62 dB -15.06 dB 4:30 14-Signifying Blues
DR10 -1.33 dB -14.85 dB 2:47 17-Can You Shimmy?
DR12 -1.01 dB -14.49 dB 2:26 07-Clothes Line (Wrap It Up) [Shoppin' for Clothes]
DR10 -1.49 dB -14.11 dB 2:46 13-'Cause I Love You
DR13 -1.20 dB -15.15 dB 2:12 06-Shrimp and Gumbo
DR10 -2.01 dB -13.95 dB 2:17 19-Check Mr. Popeye (Part 1)
DR10 -1.71 dB -14.08 dB 2:40 20-Now Let's Popeye (Part 2)
DR12 -1.38 dB -15.14 dB 2:17 24-Roamin' - Itis
DR12 -0.37 dB -14.45 dB 1:52 11-Crawfish
DR13 -0.36 dB -15.22 dB 2:53 15-Back Door Man
DR11 -1.20 dB -14.49 dB 2:53 22-Mashed Patatoes U.S.A.
DR11 -1.37 dB -14.43 dB 2:34 23-I've Got Money
DR13 -0.38 dB -15.47 dB 2:27 16-And I Do Just What I Want
DR11 -1.70 dB -14.14 dB 3:15 03-Half Pint of Whiskey
DR11 -1.39 dB -14.40 dB 2:27 18-Messed Around (and Fell in Love)
DR11 -0.87 dB -15.72 dB 3:39 09-My Baby Just Cares for Me
DR11 -0.89 dB -13.86 dB 2:55 01-Mardis Gras in New Orleans
DR15 -0.38 dB -18.61 dB 8:10 08-Blue Funk
DR11 -0.09 dB -15.37 dB 2:15 02-I've Got a Home
DR9 -0.52 dB -11.15 dB 2:20 04-Mardi Gras Mambo
DR11 -1.64 dB -14.39 dB 2:29 21-I Found You [I Got You (I Feel Good)]
--------------------------------------------------------------------------------
Number of tracks: 24
Official DR value: DR11
Samplerate: 44100 Hz
Channels: 2
Bits per sample: 16
Bitrate: 630 kbps
Codec: FLAC
================================================================================

-=послушать=-
Приватный:
Нет (DHT включён)
Размер:
1.00 Гб (1,077,159,043 байт) » файлов: 85
Участники:
0 раздают, 0 качают (0 участников всего)
Внешние участники:
2 раздают, 1 качают (3 участников всего) [ Обновить ]
Есть вопросы - пишите личное сообщение пользователю M0p94ok.
07:49
45
Нет комментариев. Ваш будет первым!