Поиск

(Funk, Smooth Jazz) Bob Baldwin - All in a Day's Work - 2005, APE (image+.cue), lossless

Треклист:
Bob Baldwin - All in a Day's Work
Жанр: Funk, Smooth Jazz
Год выпуска диска: 2005
Производитель диска: USA
Аудио кодек: APE
Тип рипа: image+.cue
Битрейт аудио: lossless
Продолжительность: 63:42
Трэклист:
1. A New York Minute
2. All In a Day's Work
3. Day-O
4. Third Time's The Charm
5. Quirky
6. Can You Feel It?
7. Steamy
8. Sunrise
9. Quality Time
10. Steamy (Interlude)
11. The Very Last Night In Rio
12. Don't Get It Twisted
13. Can You Feel It? (Interlude)
 
Files
1.jpg
2.jpg
3.jpg
Bob Baldwin - All In A Days Work(ape).cue
Bob Baldwin - All In A Days Work.ape
Bob Baldwin - All In A Days Work.cue
Bob Baldwin - All In A Days Work.log
Bob Baldwin - All In A Days Work.torrent
Disc.jpg
tau.jpg
 
EAC Log
Exact Audio Copy V0.99 prebeta 4 from 23. January 2008
Отчёт EAC об извлечении, выполненном 30. июня 2008, 18:20
Bob Baldwin / All In A Days Work
Дисковод: _NEC DVD_RW ND-3550A Adapter: 1 ID: 0
Режим чтения : Достоверность
Использование точного потока : Да
Отключение кэша аудио : Да
Использование указателей C2 : Нет
Коррекция смещения при чтении : 48
Способность читать области Lead-in и Lead-out : Нет
Заполнение пропущенных сэмплов тишиной : Да
Удаление блоков с тишиной в начале и конце : Нет
При вычислениях CRC использовались нулевые сэмплы : Нет
Интерфейс : Встроенный Win32-интерфейс для Win NT/2000
Выходной формат : Внутренние WAV-операции
Формат сэмплов : 44.100 Гц; 16 бит; стерео
TOC извлечённого CD
Трек | Старт | Длительность | Начальный сектор | Конечный сектор
---------------------------------------------------------------------
1 | 0:00.00 | 6:12.43 | 0 | 27942
2 | 6:12.43 | 4:57.57 | 27943 | 50274
3 | 11:10.25 | 5:51.01 | 50275 | 76600
4 | 17:01.26 | 5:40.52 | 76601 | 102152
5 | 22:42.03 | 6:30.71 | 102153 | 131473
6 | 29:12.74 | 6:38.28 | 131474 | 161351
7 | 35:51.27 | 5:53.11 | 161352 | 187837
8 | 41:44.38 | 4:54.12 | 187838 | 209899
9 | 46:38.50 | 1:46.63 | 209900 | 217912
10 | 48:25.38 | 0:51.74 | 217913 | 221811
11 | 49:17.37 | 5:21.04 | 221812 | 245890
12 | 54:38.41 | 7:44.07 | 245891 | 280697
13 | 62:22.48 | 1:19.31 | 280698 | 286653
Характеристики диапазона извлечения и сообщения об ошибках
Выбранный диапазон
Имя файла C:\Torrents\Bob Boldwin\Bob Baldwin - All In A Days Work.wav
Пиковый уровень 99.9 %
Качество диапазона 99.9 %
CRC копии 58372C6A
Копирование... OK
Ошибок не произошло
AccurateRip: сводка
Трек 1 нет в базе данных
Трек 2 нет в базе данных
Трек 3 нет в базе данных
Трек 4 нет в базе данных
Трек 5 нет в базе данных
Трек 6 нет в базе данных
Трек 7 нет в базе данных
Трек 8 нет в базе данных
Трек 9 нет в базе данных
Трек 10 нет в базе данных
Трек 11 нет в базе данных
Трек 12 нет в базе данных
Трек 13 нет в базе данных
Ни одного трека нет в базе AccurateRip
Конец отчёта
 
tau
Приватный:
Нет (DHT включён)
Размер:
419.59 Мб (439,967,398 байт) » файлов: 9
Участники:
0 раздают, 0 качают (0 участников всего)
Внешние участники:
--- [ Обновить ]
13:16
4
Нет комментариев. Ваш будет первым!