Поиск

(Funk) [CD] Calibro 35 - Ogni Riferimento A Persone Esistenti O A Fatti Realmente Accaduti E' Puramente Casuale - 2012, FLAC (tracks+.cue), lossless

(Funk) [CD] Calibro 35 - Ogni Riferimento A Persone Esistenti O A Fatti Realmente Accaduti E' Puramente Casuale - 2012, FLAC (tracks+.cue), lossless
Треклист:
Calibro 35 / Ogni Riferimento A Persone Esistenti O A Fatti Realmente Accaduti E' Puramente Casuale
Жанр: Funk
Носитель: CD
Год издания: 2012
Издатель (лейбл): Tannen Records
Номер по каталогу: LUCE 11003
Аудиокодек: FLAC (*.flac)
Тип рипа: tracks+.cue
Битрейт аудио: lossless
Продолжительность: 40:56
Источник (релизер): обмен
Наличие сканов в содержимом раздачи: да
Треклист:
1. Calibro 35 - Ogni Riferimento A Fatti Accaduti E' Puramente Casuale [3:45]
2. Calibro 35 - Uh Ah Brr [2:33]
3. Calibro 35 - Arrivederci E Grazie [3:13]
4. Calibro 35 - New Dehli Deli [3:24]
5. Calibro 35 - Il Pacco [4:03]
6. Calibro 35 - Passaggi Nel Tempo [2:23]
7. Calibro 35 - New York New York [2:54]
8. Calibro 35 - Buone Notizie [3:49]
9. Calibro 35 - La Banda Del B.B.Q. Brooklyn, Bronx, Queens [3:09]
10. Calibro 35 - Pioggia E Cemento [2:38]
11. Calibro 35 - Massacro All'Alba [5:32]
12. Calibro 35 - Ogni Riferimento A Persone Esistenti E' Puramente Casuale [3:33]
 
Лог создания рипа
X Lossless Decoder version 20141129 (148.1)
XLD extraction logfile from 2015-10-04 16:31:31 +0200
Calibro 35 / Ogni Riferimento A Persone Esistenti o A Fatti Accaduti E' Puramente Casuale
Used drive : HL-DT-ST DVDRW GX40N (revision RQ00)
Media type : Pressed CD
Ripper mode : XLD Secure Ripper
Disable audio cache : OK for the drive with a cache less than 1375KiB
Make use of C2 pointers : NO
Read offset correction : 6
Max retry count : 100
Gap status : Analyzed, Appended (except HTOA)
TOC of the extracted CD
Track | Start | Length | Start sector | End sector
---------------------------------------------------------
1 | 00:00:00 | 03:45:30 | 0 | 16904
2 | 03:45:30 | 02:32:74 | 16905 | 28378
3 | 06:18:29 | 03:12:47 | 28379 | 42825
4 | 09:31:01 | 03:24:10 | 42826 | 58135
5 | 12:55:11 | 04:03:33 | 58136 | 76393
6 | 16:58:44 | 02:22:68 | 76394 | 87111
7 | 19:21:37 | 02:53:64 | 87112 | 100150
8 | 22:15:26 | 03:48:59 | 100151 | 117309
9 | 26:04:10 | 03:08:52 | 117310 | 131461
10 | 29:12:62 | 02:37:61 | 131462 | 143297
11 | 31:50:48 | 05:31:72 | 143298 | 168194
12 | 37:22:45 | 03:33:37 | 168195 | 184206
AccurateRip Summary (DiscID: 00119d47-00a4f297-9409980c)
Track 01 : OK (v2, confidence 12/12)
Track 02 : OK (v2, confidence 12/12)
Track 03 : OK (v2, confidence 12/12)
Track 04 : OK (v2, confidence 12/12)
Track 05 : OK (v2, confidence 12/12)
Track 06 : OK (v2, confidence 12/12)
Track 07 : OK (v2, confidence 12/12)
Track 08 : OK (v2, confidence 12/12)
Track 09 : OK (v2, confidence 12/12)
Track 10 : OK (v2, confidence 12/12)
Track 11 : OK (v2, confidence 12/12)
Track 12 : OK (v2, confidence 12/12)
->All tracks accurately ripped.
All Tracks
Album gain : -9.56 dB
Peak : 0.996399
Statistics
Read error : 0
Jitter error (maybe fixed) : 0
Retry sector count : 0
Damaged sector count : 0
Track 01
Filename : /Users/XLD/01 - Ogni Riferimento A Fatti Accaduti E' Puramente Casuale.flac
Pre-gap length : 00:02:00
Track gain : -9.03 dB
Peak : 0.995026
CRC32 hash (test run) : 17935841
CRC32 hash : 17935841
CRC32 hash (skip zero) : 880268BD
AccurateRip v1 signature : 87EDC80A
AccurateRip v2 signature : 39E8A983
->Accurately ripped (v2, confidence 12/12)
Statistics
Read error : 0
Jitter error (maybe fixed) : 0
Retry sector count : 0
Damaged sector count : 0
Track 02
Filename : /Users/XLD/02 - Uh Ah Brr.flac
Track gain : -10.03 dB
Peak : 0.995331
CRC32 hash (test run) : B42A4482
CRC32 hash : B42A4482
CRC32 hash (skip zero) : 831191F6
AccurateRip v1 signature : 74E4F38A
AccurateRip v2 signature : A12E410B
->Accurately ripped (v2, confidence 12/12)
Statistics
Read error : 0
Jitter error (maybe fixed) : 0
Retry sector count : 0
Damaged sector count : 0
Track 03
Filename : /Users/XLD/03 - Arrivederci E Grazie.flac
Track gain : -10.36 dB
Peak : 0.995178
CRC32 hash (test run) : 0EBF49B2
CRC32 hash : 0EBF49B2
CRC32 hash (skip zero) : 682775D6
AccurateRip v1 signature : 848C435A
AccurateRip v2 signature : 9699DF11
->Accurately ripped (v2, confidence 12/12)
Statistics
Read error : 0
Jitter error (maybe fixed) : 0
Retry sector count : 0
Damaged sector count : 0
Track 04
Filename : /Users/XLD/04 - New Dehli Deli.flac
Track gain : -9.88 dB
Peak : 0.995056
CRC32 hash (test run) : 33A63509
CRC32 hash : 33A63509
CRC32 hash (skip zero) : E4A2556A
AccurateRip v1 signature : BAA335A6
AccurateRip v2 signature : 5262A3F9
->Accurately ripped (v2, confidence 12/12)
Statistics
Read error : 0
Jitter error (maybe fixed) : 0
Retry sector count : 0
Damaged sector count : 0
Track 05
Filename : /Users/XLD/05 - Il Pacco.flac
Track gain : -9.83 dB
Peak : 0.996399
CRC32 hash (test run) : 395AC591
CRC32 hash : 395AC591
CRC32 hash (skip zero) : 984F0282
AccurateRip v1 signature : DCE03360
AccurateRip v2 signature : 8CE12FD4
->Accurately ripped (v2, confidence 12/12)
Statistics
Read error : 0
Jitter error (maybe fixed) : 0
Retry sector count : 0
Damaged sector count : 0
Track 06
Filename : /Users/XLD/06 - Passaggi Nel Tempo.flac
Track gain : -8.56 dB
Peak : 0.994080
CRC32 hash (test run) : F6320ACE
CRC32 hash : F6320ACE
CRC32 hash (skip zero) : 775C75C2
AccurateRip v1 signature : CDF5357F
AccurateRip v2 signature : 81123DC2
->Accurately ripped (v2, confidence 12/12)
Statistics
Read error : 0
Jitter error (maybe fixed) : 0
Retry sector count : 0
Damaged sector count : 0
Track 07
Filename : /Users/XLD/07 - New York New York.flac
Track gain : -7.50 dB
Peak : 0.995453
CRC32 hash (test run) : D9E95F69
CRC32 hash : D9E95F69
CRC32 hash (skip zero) : E3E05437
AccurateRip v1 signature : 8DD408D5
AccurateRip v2 signature : 81406611
->Accurately ripped (v2, confidence 12/12)
Statistics
Read error : 0
Jitter error (maybe fixed) : 0
Retry sector count : 0
Damaged sector count : 0
Track 08
Filename : /Users/XLD/08 - Buone Notizie.flac
Track gain : -8.17 dB
Peak : 0.995178
CRC32 hash (test run) : 22B2D2D9
CRC32 hash : 22B2D2D9
CRC32 hash (skip zero) : 5F42A43C
AccurateRip v1 signature : E0B708AD
AccurateRip v2 signature : C55DC971
->Accurately ripped (v2, confidence 12/12)
Statistics
Read error : 0
Jitter error (maybe fixed) : 0
Retry sector count : 0
Damaged sector count : 0
Track 09
Filename : /Users/XLD/09 - La Banda Del B.B.Q. Brooklyn, Bronx, Queens.flac
Track gain : -9.90 dB
Peak : 0.994812
CRC32 hash (test run) : F64842C3
CRC32 hash : F64842C3
CRC32 hash (skip zero) : 96276FAB
AccurateRip v1 signature : F6536B63
AccurateRip v2 signature : F9CF898E
->Accurately ripped (v2, confidence 12/12)
Statistics
Read error : 0
Jitter error (maybe fixed) : 0
Retry sector count : 0
Damaged sector count : 0
Track 10
Filename : /Users/XLD/10 - Pioggia E Cemento.flac
Track gain : -7.13 dB
Peak : 0.994049
CRC32 hash (test run) : D9239207
CRC32 hash : D9239207
CRC32 hash (skip zero) : 671BE5D3
AccurateRip v1 signature : 2F06BB66
AccurateRip v2 signature : BD3B2E02
->Accurately ripped (v2, confidence 12/12)
Statistics
Read error : 0
Jitter error (maybe fixed) : 0
Retry sector count : 0
Damaged sector count : 0
Track 11
Filename : /Users/XLD/11 - Massacro All'Alba.flac
Track gain : -9.77 dB
Peak : 0.995117
CRC32 hash (test run) : 05B3D605
CRC32 hash : 05B3D605
CRC32 hash (skip zero) : 570C17C1
AccurateRip v1 signature : 64883C81
AccurateRip v2 signature : F0B74323
->Accurately ripped (v2, confidence 12/12)
Statistics
Read error : 0
Jitter error (maybe fixed) : 0
Retry sector count : 0
Damaged sector count : 0
Track 12
Filename : /Users/XLD/12 - Ogni Riferimento A Persone Esistenti E' Puramente Casuale.flac
Track gain : -9.67 dB
Peak : 0.996033
CRC32 hash (test run) : 32BA0609
CRC32 hash : 32BA0609
CRC32 hash (skip zero) : CDEBE13C
AccurateRip v1 signature : B958231E
AccurateRip v2 signature : 978D2F48
->Accurately ripped (v2, confidence 12/12)
Statistics
Read error : 0
Jitter error (maybe fixed) : 0
Retry sector count : 0
Damaged sector count : 0
No errors occurred
End of status report
-----BEGIN XLD SIGNATURE-----
ISZBhNgTNP8xEaMXMn8eKQlpNq_isLTfJi9eE.Cg96jgZbEjEbJqXcHKQeumdlVDb21oj0Z.LhxSXO0HjumP1GZcks5qbJmG_HS0ML0
-----END XLD SIGNATURE-----
 
Содержание индексной карты (.CUE)
TITLE "Ogni Riferimento A Persone Esistenti o A Fatti Accaduti E' Puramente Casuale"
PERFORMER "Calibro 35"
CATALOG 8012622838024
REM GENRE "Soundtrack"
REM DATE "2012"
REM DISCID 9409980C
FILE "01 - Ogni Riferimento A Fatti Accaduti E' Puramente Casuale.wav" WAVE
TRACK 01 AUDIO
TITLE "Ogni Riferimento A Fatti Accaduti E' Puramente Casuale"
ISRC ITK211100023
INDEX 01 00:00:00
FILE "02 - Uh Ah Brr.wav" WAVE
TRACK 02 AUDIO
TITLE "Uh Ah Brr"
ISRC ITK211100024
INDEX 01 00:00:00
FILE "03 - Arrivederci E Grazie.wav" WAVE
TRACK 03 AUDIO
TITLE "Arrivederci E Grazie"
ISRC ITK211100025
INDEX 01 00:00:00
FILE "04 - New Dehli Deli.wav" WAVE
TRACK 04 AUDIO
TITLE "New Dehli Deli"
ISRC ITK211100026
INDEX 01 00:00:00
FILE "05 - Il Pacco.wav" WAVE
TRACK 05 AUDIO
TITLE "Il Pacco"
ISRC ITK211100027
INDEX 01 00:00:00
FILE "06 - Passaggi Nel Tempo.wav" WAVE
TRACK 06 AUDIO
TITLE "Passaggi Nel Tempo"
ISRC ITK211100028
INDEX 01 00:00:00
FILE "07 - New York New York.wav" WAVE
TRACK 07 AUDIO
TITLE "New York New York"
ISRC ITK211100029
INDEX 01 00:00:00
FILE "08 - Buone Notizie.wav" WAVE
TRACK 08 AUDIO
TITLE "Buone Notizie"
ISRC ITK211100030
INDEX 01 00:00:00
FILE "09 - La Banda Del B.B.Q. Brooklyn, Bronx, Queens.wav" WAVE
TRACK 09 AUDIO
TITLE "La Banda Del B.B.Q. Brooklyn, Bronx, Queens"
ISRC ITK211100031
INDEX 01 00:00:00
FILE "10 - Pioggia E Cemento.wav" WAVE
TRACK 10 AUDIO
TITLE "Pioggia E Cemento"
ISRC ITK211100032
INDEX 01 00:00:00
FILE "11 - Massacro All'Alba.wav" WAVE
TRACK 11 AUDIO
TITLE "Massacro All'Alba"
ISRC ITK211100033
INDEX 01 00:00:00
FILE "12 - Ogni Riferimento A Persone Esistenti E' Puramente Casuale.wav" WAVE
TRACK 12 AUDIO
TITLE "Ogni Riferimento A Persone Esistenti E' Puramente Casuale"
ISRC ITK211100034
INDEX 01 00:00:00
Приватный:
Нет (DHT включён)
Размер:
304.98 Мб (319,796,883 байт) » файлов: 18
Участники:
0 раздают, 0 качают (0 участников всего)
Внешние участники:
5 раздают, 2 качают (7 участников всего) [ Обновить ]
Есть вопросы - пишите личное сообщение пользователю M0p94ok.
15:28
50
Нет комментариев. Ваш будет первым!