Вы используете незарегистрированную версию компонента "Вкладки"!

Поиск

(Free Jazz) The Louie Belogenis Trio (with Sunny Murray & Michael Bisio) - Tiresias - 2011, FLAC (image+.cue), lossless

(Free Jazz) The Louie Belogenis Trio (with Sunny Murray & Michael Bisio) - Tiresias - 2011, FLAC (image+.cue), lossless
Треклист:
The Louie Belogenis Trio / Tiresias
Жанр: Free Jazz
Страна-производитель диска: US
Год издания: 2011
Издатель (лейбл): Porter Records
Номер по каталогу: PRCD - 4057
Аудиокодек: FLAC (*.flac)
Тип рипа: image+.cue
Битрейт аудио: lossless
Продолжительность: 48:38
Источник (релизер): cd
Наличие сканов в содержимом раздачи: нет
Треклист:
1 When Darkness Fell 6:32
2 Blind Prophecy 6:34
3 Divination 7:58
4 Tiresias 19:08
5 Alabama 5:07
6 Seven Lives 3:17
 
Лог создания рипа
Exact Audio Copy V1.0 beta 2 from 29. April 2011
EAC extraction logfile from 11. June 2013, 14:40
The Louie Belogenis Trio / Tiresias
Used drive : Optiarc DVD RW AD-7170A Adapter: 0 ID: 0
Read mode : Secure
Utilize accurate stream : Yes
Defeat audio cache : Yes
Make use of C2 pointers : No
Read offset correction : 48
Overread into Lead-In and Lead-Out : No
Fill up missing offset samples with silence : Yes
Delete leading and trailing silent blocks : No
Null samples used in CRC calculations : Yes
Used interface : Native Win32 interface for Win NT & 2000
Used output format : User Defined Encoder
Selected bitrate : 320 kBit/s
Quality : High
Add ID3 tag : No
Command line compressor : C:\Program Files\Exact Audio Copy\Flac\flac.exe
Additional command line options : -V -8 -T "Date=%year%" -T "Genre=%genre%" %source%
TOC of the extracted CD
Track | Start | Length | Start sector | End sector
---------------------------------------------------------
1 | 0:00.00 | 6:32.26 | 0 | 29425
2 | 6:32.26 | 6:34.40 | 29426 | 59015
3 | 13:06.66 | 7:58.65 | 59016 | 94930
4 | 21:05.56 | 19:08.18 | 94931 | 181048
5 | 40:13.74 | 5:07.44 | 181049 | 204117
6 | 45:21.43 | 3:17.28 | 204118 | 218920
Range status and errors
Selected range
Filename K:\ЕАС\The Louie Belogenis Trio - Tiresias.wav
Peak level 100.0 %
Extraction speed 1.8 X
Range quality 99.9 %
Test CRC 4CB269A8
Copy CRC 4CB269A8
Copy OK
No errors occurred
AccurateRip summary
Track 1 not present in database
Track 2 not present in database
Track 3 not present in database
Track 4 not present in database
Track 5 not present in database
Track 6 not present in database
None of the tracks are present in the AccurateRip database
End of status report
==== Log checksum 2E4C61100DA8AE4CA4512B335768C1E7C35388E6EF7DBBD2C44024E0BA81D2DA ====
 
Содержание индексной карты (.CUE)
REM GENRE Jazz
REM DATE 2011
REM DISCID 530B6606
REM COMMENT "ExactAudioCopy v1.0b2"
PERFORMER "The Louie Belogenis Trio"
TITLE "Tiresias"
FILE "The Louie Belogenis Trio - Tiresias.flac" WAVE
TRACK 01 AUDIO
TITLE "When Darkness Fell"
PERFORMER "The Louie Belogenis Trio"
ISRC USM3Y1180001
INDEX 01 00:00:00
TRACK 02 AUDIO
TITLE "Blind Prophecy"
PERFORMER "The Louie Belogenis Trio"
ISRC USM3Y1180002
INDEX 01 06:32:26
TRACK 03 AUDIO
TITLE "Divination"
PERFORMER "The Louie Belogenis Trio"
ISRC USM3Y1180003
INDEX 01 13:06:66
TRACK 04 AUDIO
TITLE "Tiresias"
PERFORMER "The Louie Belogenis Trio"
ISRC USM3Y1180004
INDEX 01 21:05:56
TRACK 05 AUDIO
TITLE "Alabama"
PERFORMER "The Louie Belogenis Trio"
ISRC USM3Y1180005
INDEX 01 40:13:74
TRACK 06 AUDIO
TITLE "Seven Lives"
PERFORMER "The Louie Belogenis Trio"
ISRC USM3Y1180006
INDEX 01 45:21:43
Доп. информация: Recorded May 17, 2008 at Eastside Sound
 
Состав
Bass – Michael Bisio
Drums – Sunny Murray
Tenor Saxophone – Louie Belogenis
Any questions -> support@pro-jazz.com. По всем вопросам пишите -> support@pro-jazz.com
14:38
211
Нет комментариев. Ваш будет первым!