Вы используете незарегистрированную версию компонента "Вкладки"!

Поиск

(Free Jazz, Post-Bop, Soul Note) The Barry Altschul Quartet & Quintet - That's Nice - 1986, FLAC (tracks+.cue), lossless

(Free Jazz, Post-Bop, Soul Note) The Barry Altschul Quartet & Quintet - That's Nice - 1986, FLAC (tracks+.cue), lossless
Издатель (лейбл):
Треклист:
The Barry Altschul Quartet & Quintet / That's Nice
Жанр: Free Jazz, Post-Bop, Soul Note
Страна-производитель диска: France
Год издания: 1986
Издатель (лейбл): Soul Note
Номер по каталогу: SN 1115 CD
Страна: US
Аудиокодек: FLAC (*.flac)
Тип рипа: tracks+.cue
Битрейт аудио: lossless
Продолжительность: 44:37
Источник (релизер): свой фирменный диск
Наличие сканов в содержимом раздачи:
Треклист:
1 Ahfra Love 7:19
2 Blues Interrogation 7:20
3 Satarumbarengue 7:43
4 That's Nice 12:11
5 For'Papa' Jo, 'Klook' And 'Philly' Too 9:47
 
Лог создания рипа
Exact Audio Copy V1.0 beta 3 from 29. August 2011
EAC extraction logfile from 6. August 2013, 17:46
The Barry Altschul Quartet / Quintet / That's Nice
Used drive : PIONEER DVD-RW DVR-115D Adapter: 0 ID: 0
Read mode : Secure
Utilize accurate stream : Yes
Defeat audio cache : Yes
Make use of C2 pointers : No
Read offset correction : 48
Overread into Lead-In and Lead-Out : No
Fill up missing offset samples with silence : Yes
Delete leading and trailing silent blocks : No
Null samples used in CRC calculations : Yes
Used interface : Installed external ASPI interface
Gap handling : Appended to previous track
Used output format : User Defined Encoder
Selected bitrate : 896 kBit/s
Quality : High
Add ID3 tag : No
Command line compressor : C:\Program Files\Exact Audio Copy\FLAC\FLAC.EXE
Additional command line options : -6 -V -T "ARTIST=%artist%" -T "TITLE=%title%" -T "ALBUM=%albumtitle%" -T "DATE=%year%" -T "TRACKNUMBER=%tracknr%" -T "GENRE=%genre%" -T "COMMENT=%comment%" -T "BAND=%albuminterpret%" -T "COMPOSER=%composer%" %haslyrics%--tag-from-file=LYRICS="%lyricsfile%"%haslyrics% -T "DISCNUMBER=%cdnumber%" -T "TOTALDISCS=%totalcds%" -T "TOTALTRACKS=%numtracks%" %hascover%--picture="%coverfile%"%hascover% %source% -o %dest%
TOC of the extracted CD
Track | Start | Length | Start sector | End sector
---------------------------------------------------------
1 | 0:00.33 | 7:20.72 | 33 | 33104
2 | 7:21.30 | 7:24.73 | 33105 | 66477
3 | 14:46.28 | 7:50.00 | 66478 | 101727
4 | 22:36.28 | 12:15.02 | 101728 | 156854
5 | 34:51.30 | 9:46.10 | 156855 | 200814
Track 1
Filename D:\zzz\01 - Ahfra Love.wav
Pre-gap length 0:00:02.33
Peak level 84.5 %
Extraction speed 4.7 X
Track quality 100.0 %
Test CRC BFE3ACA1
Copy CRC BFE3ACA1
Track not present in AccurateRip database
Copy OK
Track 2
Filename D:\zzz\02 - Blues Interrogation.wav
Pre-gap length 0:00:02.42
Peak level 80.9 %
Extraction speed 5.5 X
Track quality 100.0 %
Test CRC E28B62EC
Copy CRC E28B62EC
Track not present in AccurateRip database
Copy OK
Track 3
Filename D:\zzz\03 - Satarumbarengue.wav
Pre-gap length 0:00:03.65
Peak level 90.8 %
Extraction speed 6.2 X
Track quality 100.0 %
Test CRC 945227B2
Copy CRC 945227B2
Track not present in AccurateRip database
Copy OK
Track 4
Filename D:\zzz\04 - That's Nice.wav
Pre-gap length 0:00:04.00
Peak level 86.3 %
Extraction speed 6.8 X
Track quality 99.9 %
Test CRC 8BA74D51
Copy CRC 8BA74D51
Track not present in AccurateRip database
Copy OK
Track 5
Filename D:\zzz\05 - For ''Papa'' Jo, ''Klook'' And ''Philly'' Too.wav
Pre-gap length 0:00:04.15
Peak level 76.2 %
Extraction speed 7.8 X
Track quality 100.0 %
Test CRC 390605C2
Copy CRC 390605C2
Track not present in AccurateRip database
Copy OK
None of the tracks are present in the AccurateRip database
No errors occurred
End of status report
==== Log checksum 795213124F53B7A3C1554C5F014040D6F7FBD8730327C30AF2DF19A33A740403 ====
 
Содержание индексной карты (.CUE)
REM GENRE "Free Jazz"
REM DATE 1986
REM DISCID 440A7505
REM COMMENT "ExactAudioCopy v1.0b3"
PERFORMER "The Barry Altschul Quartet / Quintet"
TITLE "That's Nice"
FILE "01 - Ahfra Love.wav" WAVE
TRACK 01 AUDIO
TITLE "Ahfra Love"
PERFORMER "The Barry Altschul Quartet / Quintet"
PREGAP 00:00:33
INDEX 01 00:00:00
TRACK 02 AUDIO
TITLE "Blues Interrogation"
PERFORMER "The Barry Altschul Quartet / Quintet"
INDEX 00 07:18:30
FILE "02 - Blues Interrogation.wav" WAVE
INDEX 01 00:00:00
TRACK 03 AUDIO
TITLE "Satarumbarengue"
PERFORMER "The Barry Altschul Quartet / Quintet"
INDEX 00 07:21:08
FILE "03 - Satarumbarengue.wav" WAVE
INDEX 01 00:00:00
TRACK 04 AUDIO
TITLE "That's Nice"
PERFORMER "The Barry Altschul Quartet / Quintet"
INDEX 00 07:46:00
FILE "04 - That's Nice.wav" WAVE
INDEX 01 00:00:00
TRACK 05 AUDIO
TITLE "For 'Papa' Jo, 'Klook' And 'Philly' Too"
PERFORMER "The Barry Altschul Quartet / Quintet"
INDEX 00 12:10:62
FILE "05 - For ''Papa'' Jo, ''Klook'' And ''Philly'' Too.wav" WAVE
INDEX 01 00:00:00
 
Лог проверки качества
d:\>d:\aucdtect -d/-m0 d:\zzz\*.wav
auCDtect: CD records authenticity detector, version 0.8.2
Copyright (c) 2004 Oleg Berngardt. All rights reserved.
Copyright (c) 2004 Alexander Djourik. All rights reserved.
------------------------------------------------------------
Processing file: [01. Ahfra Love.wav]
------------------------------------------------------------
This track looks like CDDA with probability 100%
------------------------------------------------------------
Processing file: [02. Blues Interrogation.wav]
------------------------------------------------------------
This track looks like CDDA with probability 99%
------------------------------------------------------------
Processing file: [03. Satarumbarengue.wav]
------------------------------------------------------------
This track looks like CDDA with probability 99%
------------------------------------------------------------
Processing file: [04. That's Nice.wav]
------------------------------------------------------------
This track looks like CDDA with probability 100%
------------------------------------------------------------
Processing file: [05. For 'Papa' Jo, 'Klook' And 'Philly' Too.wav]
------------------------------------------------------------
This track looks like CDDA with probability 100%
------------------------------------------------------------
Final Conclusion:
------------------------------------------------------------
These tracks looks like CDDA with probability 100%
Доп. информация:
 
AMG Review
Drummer Barry Altschul gets to show off his versatility and talents throughout this interesting quartet/quintet set with trombonist Glen Ferris, Sean Bergin (doubling on alto and tenor), bassist Andy McKee and (on two of the five pieces) pianist Mike Melillo. All of the quirky pieces are group originals (Altschul contributed three), with the leader's "For Papa Jo, Klook and Philly Too" being a fine tribute to three drummers. In general, the music has many free moments, yet is not afraid to swing or to include melodies. A stimulating set.
 
Состав
Alto Saxophone, Tenor Saxophone – Sean Bergin
Bass – Andy McKee
Drums – Barry Altschul
Piano – Mike Melillo (3,4)
Trombone – Glenn Ferris
По всем вопросам пишите личное сообщение пользователю M0p94ok.
16:54
210
Нет комментариев. Ваш будет первым!