Вы используете незарегистрированную версию компонента "Вкладки"!

Поиск

(Free-Jazz, Post-Bop) Charles Mingus - Mingus In Europe, vol.1 - 1964, FLAC (tracks+.cue), lossless

(Free-Jazz, Post-Bop) Charles Mingus - Mingus In Europe, vol.1 - 1964, FLAC (tracks+.cue), lossless
Треклист:
Charles Mingus / Mingus In Europe, vol.1
Жанр: Free-Jazz, Post-Bop
Страна-производитель диска: Germany
Год издания: 1964
Издатель (лейбл): Enja
Страна: USA
Аудиокодек: FLAC (*.flac)
Тип рипа: tracks+.cue
Битрейт аудио: lossless
Продолжительность: 65:26
Источник (релизер): what.cd/bgriff09
Наличие сканов в содержимом раздачи: нет
Треклист:
1. Fables Of Faubus (Written by Charles Mingus) - 37:31
2. Starting (Written by Eric Dolphy) - 7:23
3. Meditations (Written by Charles Mingus) - 22:34
Recorded at Wuppertal Townhall, W.-Germany April 26th, 1964
 
Лог создания рипа
EAC extraction logfile from 27. December 2007, 15:17 for CD
Charles Mingus / Charles Mingus In Europe Volume I
Used drive : HL-DT-STDVDRRW GSA-H20L Adapter: 0 ID: 0
Read mode : Secure with NO C2, accurate stream, disable cache
Read offset correction : 102
Overread into Lead-In and Lead-Out : No
Used output format : C:\Program Files\Exact Audio Copy\flac.exe (User Defined Encoder)
192 kBit/s
Additional command line options : -8 -A tukey(0.25) -A gauss(0.1875) -b 4096 -V -T "artist=%a" -T "title=%t" -T "album=%g" -T "date=%y" -T "tracknumber=%n" -T "genre=%m" %s --sector-align
Other options :
Fill up missing offset samples with silence : Yes
Delete leading and trailing silent blocks : No
Installed external ASPI interface
Track 1
Filename K:\My Music\1 New Torrents\Charles Mingus - Mingus in Europe Vol. 1 flac\01 - Fables Of Faubus.wav
Pre-gap length 0:00:02.00
Peak level 98.7 %
Track quality 99.9 %
Test CRC D2653BBE
Copy CRC D2653BBE
Copy OK
Track 2
Filename K:\My Music\1 New Torrents\Charles Mingus - Mingus in Europe Vol. 1 flac\02 - Starting.wav
Pre-gap length 0:00:05.73
Peak level 93.5 %
Track quality 100.0 %
Test CRC 44C4FDF1
Copy CRC 44C4FDF1
Copy OK
Track 3
Filename K:\My Music\1 New Torrents\Charles Mingus - Mingus in Europe Vol. 1 flac\03 - Meditations.wav
Pre-gap length 0:00:03.06
Peak level 97.7 %
Track quality 100.0 %
Test CRC 3C1C0166
Copy CRC 3C1C0166
Copy OK
No errors occured
End of status report
 
Содержание индексной карты (.CUE)
PERFORMER "Charles Mingus"
TITLE "Charles Mingus In Europe Volume I"
FILE "01 - Fables Of Faubus.wav" WAVE
TRACK 01 AUDIO
TITLE "Fables Of Faubus"
PERFORMER "Charles Mingus"
INDEX 01 00:00:00
TRACK 02 AUDIO
TITLE "Starting"
PERFORMER "Charles Mingus"
INDEX 00 37:29:20
FILE "02 - Starting.wav" WAVE
INDEX 01 00:00:00
TRACK 03 AUDIO
TITLE "Meditations"
PERFORMER "Charles Mingus"
INDEX 00 05:24:17
FILE "03 - Meditations.wav" WAVE
INDEX 01 00:00:00
 
Об альбоме (сборнике)
The 1964 Charles Mingus Quintet (trumpeter Johnny Coles had departed a few days earlier due to illness) teamed together the unique multi-instrumentalist Eric Dolphy, tenor-saxophonist Clifford Jordan, pianist Jaki Byard, drummer Dannie Richmond and the bassist/leader in one of the great bands of the 1960s. There are many recordings currently available from their European tour and all are worth acquiring including this excellent Enja set.
 
Состав
* Eric Dolphy - alto sax, bass clarinet, flute
* Clifford Jordan - tenor sax (except 2)
* Jaki Byard - piano (except 2)
* Charles Mingus - bass
* Dannie Richmond - drums (except 2)
Торрент изменен, добавлен cue c исправлениями.
Any questions -> support@pro-jazz.com. По всем вопросам пишите -> support@pro-jazz.com
06:45
134
Нет комментариев. Ваш будет первым!