Вы используете незарегистрированную версию компонента "Вкладки"!

Поиск

(Free Jazz, Modern Creative) Mary Halvorson Quintet - Saturn Sings - 2010, FLAC (tracks+.cue) lossless

(Free Jazz, Modern Creative) Mary Halvorson Quintet - Saturn Sings - 2010, FLAC (tracks+.cue) lossless
Треклист:
Mary Halvorson Quintet - Saturn Sings (2010) FH12-04-01-013
Жанр: Free Jazz, Modern Creative
Страна-производитель диска: USA
Год издания диска: 10/5/2010
Издатель (лейбл): Firehouse 12
Номер по каталогу: FH12-04-01-013
Страна: USA
Аудио кодек: FLAC (*.flac)
Тип рипа: tracks+.cue
Битрейт аудио: lossless
Продолжительность: 66:19
Источник (релизер): вот.сиди (impetuous)
Наличие сканов в содержимом раздачи: нет
Mary Halvorson Quintet:
Mary Halvorson (guitar)
Jon Irabagon (alto saxophone)
Jonathan Finlayson (trumpet)
John Hebert (bass)
Ches Smith (drums)
Треклист:
01. Leak Over Six Five (No. 14) [06:44]
02. Sequential Tears In It (No. 20) [06:02]
03. Mile High Like (No. 16) [04:48]
04. Moon Traps In Seven Rings (No. 17) [09:25]
05. Sea Seizure (No. 19) [05:24]
06. Crack In Sky (No. 11) [08:48]
07. Right Size Too Little (No. 12) [07:31]
08. Crescent White Singe (No. 13) [07:27]
09. Cold Mirrors (No. 15) [05:38]
10. Saturn Sings (No. 18) [04:28]
TT: 66:19
 
Лог создания рипа
Exact Audio Copy V0.99 prebeta 4 from 23. January 2008
EAC extraction logfile from 1. November 2010, 19:23
Mary Halvorson / Saturn Sings
Used drive : TSSTcorpCDDVDW SH-S223B Adapter: 3 ID: 0
Read mode : Secure
Utilize accurate stream : Yes
Defeat audio cache : Yes
Make use of C2 pointers : No
Read offset correction : 6
Overread into Lead-In and Lead-Out : No
Fill up missing offset samples with silence : Yes
Delete leading and trailing silent blocks : No
Null samples used in CRC calculations : Yes
Used interface : Native Win32 interface for Win NT & 2000
Gap handling : Appended to previous track
Used output format : User Defined Encoder
Selected bitrate : 768 kBit/s
Quality : High
Add ID3 tag : No
Command line compressor : C:\Program Files\Exact Audio Copy\FLAC\FLAC.EXE
Additional command line options : -8 -V -T "ARTIST=%a" -T "TITLE=%t" -T "ALBUM=%g" -T "DATE=%y" -T "TRACKNUMBER=%n" -T "GENRE=%m" -T "COMMENT=%e" %s -o %d
TOC of the extracted CD
Track | Start | Length | Start sector | End sector
---------------------------------------------------------
1 | 0:00.00 | 6:44.41 | 0 | 30340
2 | 6:44.41 | 6:02.45 | 30341 | 57535
3 | 12:47.11 | 4:48.06 | 57536 | 79141
4 | 17:35.17 | 9:24.68 | 79142 | 121509
5 | 27:00.10 | 5:24.00 | 121510 | 145809
6 | 32:24.10 | 8:48.00 | 145810 | 185409
7 | 41:12.10 | 7:31.65 | 185410 | 219299
8 | 48:44.00 | 7:27.14 | 219300 | 252838
9 | 56:11.14 | 5:38.44 | 252839 | 278232
10 | 61:49.58 | 4:28.41 | 278233 | 298373
Track 1
Filename D:\eac\Mary Halvorson - Saturn Sings (2010)\01 - Leak Over Six Five (No. 14).wav
Pre-gap length 0:00:02.00
Peak level 97.7 %
Track quality 100.0 %
Test CRC 5C44081C
Copy CRC 5C44081C
Track not present in AccurateRip database
Copy OK
Track 2
Filename D:\eac\Mary Halvorson - Saturn Sings (2010)\02 - Sequential Tears In It (No. 20).wav
Peak level 97.7 %
Track quality 99.9 %
Test CRC D3A8C321
Copy CRC D3A8C321
Track not present in AccurateRip database
Copy OK
Track 3
Filename D:\eac\Mary Halvorson - Saturn Sings (2010)\03 - Mile High Like (No. 16).wav
Peak level 97.7 %
Track quality 100.0 %
Test CRC F32DE8EF
Copy CRC F32DE8EF
Track not present in AccurateRip database
Copy OK
Track 4
Filename D:\eac\Mary Halvorson - Saturn Sings (2010)\04 - Moon Traps In Seven Rings (No. 17).wav
Peak level 97.7 %
Track quality 100.0 %
Test CRC 69AA4FFF
Copy CRC 69AA4FFF
Track not present in AccurateRip database
Copy OK
Track 5
Filename D:\eac\Mary Halvorson - Saturn Sings (2010)\05 - Sea Seizure (No. 19).wav
Peak level 97.7 %
Track quality 100.0 %
Test CRC BAC4AC5E
Copy CRC BAC4AC5E
Track not present in AccurateRip database
Copy OK
Track 6
Filename D:\eac\Mary Halvorson - Saturn Sings (2010)\06 - Crack In Sky (No. 11).wav
Peak level 97.7 %
Track quality 99.9 %
Test CRC A59D8333
Copy CRC A59D8333
Track not present in AccurateRip database
Copy OK
Track 7
Filename D:\eac\Mary Halvorson - Saturn Sings (2010)\07 - Right Size Too Little (No. 12).wav
Peak level 97.7 %
Track quality 100.0 %
Test CRC EB8E6CA2
Copy CRC EB8E6CA2
Track not present in AccurateRip database
Copy OK
Track 8
Filename D:\eac\Mary Halvorson - Saturn Sings (2010)\08 - Crescent White Singe (No. 13).wav
Peak level 97.7 %
Track quality 100.0 %
Test CRC 6C9F6579
Copy CRC 6C9F6579
Track not present in AccurateRip database
Copy OK
Track 9
Filename D:\eac\Mary Halvorson - Saturn Sings (2010)\09 - Cold Mirrors (No. 15).wav
Peak level 97.7 %
Track quality 100.0 %
Test CRC 6014770A
Copy CRC 6014770A
Track not present in AccurateRip database
Copy OK
Track 10
Filename D:\eac\Mary Halvorson - Saturn Sings (2010)\10 - Saturn Sings (No. 18).wav
Peak level 97.7 %
Track quality 100.0 %
Test CRC D145DAE2
Copy CRC D145DAE2
Track not present in AccurateRip database
Copy OK
None of the tracks are present in the AccurateRip database
No errors occurred
End of status report
 
Содержание индексной карты (.CUE)
REM GENRE Jazz
REM DATE 2010
REM DISCID 8E0F8A0A
REM COMMENT "ExactAudioCopy v0.99pb4"
PERFORMER "Mary Halvorson"
TITLE "Saturn Sings"
FILE "Mary Halvorson - Saturn Sings (2010)\01 - Leak Over Six Five (No. 14).wav" WAVE
TRACK 01 AUDIO
TITLE "Leak Over Six Five (No. 14)"
PERFORMER "Mary Halvorson"
INDEX 01 00:00:00
FILE "Mary Halvorson - Saturn Sings (2010)\02 - Sequential Tears In It (No. 20).wav" WAVE
TRACK 02 AUDIO
TITLE "Sequential Tears In It (No. 20)"
PERFORMER "Mary Halvorson"
INDEX 01 00:00:00
FILE "Mary Halvorson - Saturn Sings (2010)\03 - Mile High Like (No. 16).wav" WAVE
TRACK 03 AUDIO
TITLE "Mile High Like (No. 16)"
PERFORMER "Mary Halvorson"
INDEX 01 00:00:00
FILE "Mary Halvorson - Saturn Sings (2010)\04 - Moon Traps In Seven Rings (No. 17).wav" WAVE
TRACK 04 AUDIO
TITLE "Moon Traps In Seven Rings (No. 17)"
PERFORMER "Mary Halvorson"
INDEX 01 00:00:00
FILE "Mary Halvorson - Saturn Sings (2010)\05 - Sea Seizure (No. 19).wav" WAVE
TRACK 05 AUDIO
TITLE "Sea Seizure (No. 19)"
PERFORMER "Mary Halvorson"
INDEX 01 00:00:00
FILE "Mary Halvorson - Saturn Sings (2010)\06 - Crack In Sky (No. 11).wav" WAVE
TRACK 06 AUDIO
TITLE "Crack In Sky (No. 11)"
PERFORMER "Mary Halvorson"
INDEX 01 00:00:00
FILE "Mary Halvorson - Saturn Sings (2010)\07 - Right Size Too Little (No. 12).wav" WAVE
TRACK 07 AUDIO
TITLE "Right Size Too Little (No. 12)"
PERFORMER "Mary Halvorson"
INDEX 01 00:00:00
FILE "Mary Halvorson - Saturn Sings (2010)\08 - Crescent White Singe (No. 13).wav" WAVE
TRACK 08 AUDIO
TITLE "Crescent White Singe (No. 13)"
PERFORMER "Mary Halvorson"
INDEX 01 00:00:00
FILE "Mary Halvorson - Saturn Sings (2010)\09 - Cold Mirrors (No. 15).wav" WAVE
TRACK 09 AUDIO
TITLE "Cold Mirrors (No. 15)"
PERFORMER "Mary Halvorson"
INDEX 01 00:00:00
FILE "Mary Halvorson - Saturn Sings (2010)\10 - Saturn Sings (No. 18).wav" WAVE
TRACK 10 AUDIO
TITLE "Saturn Sings (No. 18)"
PERFORMER "Mary Halvorson"
INDEX 01 00:00:00
 
Об альбоме (сборнике)
Saturn Sings is guitarist/composer Mary Halvorson's highly anticipated follow-up to her acclaimed 2008 debut, Dragon's Head (Firehouse 12). It documents a new book of music written for her latest ensemble, the Mary Halvorson Quintet, which adds fellow New Yorkers Jonathan Finlayson (trumpet) and Jon Irabagon (alto saxophone) to her longstanding trio with bassist John Hébert and drummer Ches Smith. These compositions, her first for a band with horns, employ harmonies influenced by such diverse inspirations as Clifford Brown, Sam Cooke and The Soul Stirrers, Marvin Gaye, Thelonious Monk, Alexander Scriabin, Archie Shepp, Dmitri Shostakovich and Robert Wyatt.
"Saturn Sings is a continuation of the concepts and ideas heard on Dragon's Head," Ms. Halvorson explains. "My interest in harmony has grown and I’m attempting to build on the foundation of guitar, bass and drums while writing a lot of close-knit and often dissonant horn lines. There are now many other directions to go in, and the horns push the trio into different realms and vice-versa. The more we perform, the more the music gets both looser and tighter; tighter because we are working on developing a band sound, and looser because we are comfortable and trust each other, which allows us the freedom to take chances and to explore within the framework of the piece."
По всем вопросам пишите личное сообщение пользователю M0p94ok.
05:36
161
Нет комментариев. Ваш будет первым!