Вы используете незарегистрированную версию компонента "Вкладки"!

Поиск

(Free Jazz, Improvisation) [CD] James Brandon Lewis (with William Parker & Gerald Cleaver) - Divine Travels - 2014, FLAC (tracks+.cue), lossless

(Free Jazz, Improvisation) [CD] James Brandon Lewis (with William Parker & Gerald Cleaver) - Divine Travels - 2014, FLAC (tracks+.cue), lossless
Треклист:
james brandon lewis
divine travels
Жанр: Free Jazz, Improvisation
Страна-производитель диска: USA
Год издания: 2014
Издатель (лейбл): Okeh Records
Аудиокодек: FLAC (*.flac)
Тип рипа: tracks+.cue
Битрейт аудио: lossless
Продолжительность: 67:03
Источник (релизер): спасибо Pisulik
Наличие сканов в содержимом раздачи: нет
Треклист:
1. Divine
2. Desensitized
3. Tradition
4. The Preacher’s Baptist Beat
5. Wading Child in The Motherless Water
6. A Gathering Of Souls
7. Enclosed
8. No Wooden Nickels
9. Organized Minorities
10. Travels
 
Лог создания рипа
Exact Audio Copy V1.0 beta 3 from 29. August 2011
EAC extraction logfile from 27. March 2014, 21:10
James Brandon Lewis / Divine Travels
Used drive : SlimtypeDVD A DS8A5SH Adapter: 0 ID: 1
Read mode : Secure
Utilize accurate stream : Yes
Defeat audio cache : Yes
Make use of C2 pointers : No
Read offset correction : 6
Overread into Lead-In and Lead-Out : No
Fill up missing offset samples with silence : Yes
Delete leading and trailing silent blocks : No
Null samples used in CRC calculations : Yes
Used interface : Native Win32 interface for Win NT & 2000
Gap handling : Appended to previous track
Used output format : User Defined Encoder
Selected bitrate : 1024 kBit/s
Quality : High
Add ID3 tag : No
Command line compressor : C:\Program Files (x86)\Exact Audio Copy\Flac\flac.exe
Additional command line options : -8 -V -T "ARTIST=%artist%" -T "TITLE=%title%" -T "ALBUM=%albumtitle%" -T "DATE=%year%" -T "TRACKNUMBER=%tracknr%" -T "GENRE=%genre%" -T "PERFORMER=%albuminterpret%" -T "COMPOSER=%composer%" %haslyrics%--tag-from-file=LYRICS="%lyricsfile%"%haslyrics% -T "ALBUMARTIST=%albumartist%" -T "DISCNUMBER=%cdnumber%" -T "TOTALDISCS=%totalcds%" -T "TOTALTRACKS=%numtracks%" -T "COMMENT=%comment%" %source% -o %dest%
TOC of the extracted CD
Track | Start | Length | Start sector | End sector
---------------------------------------------------------
1 | 0:00.00 | 4:46.59 | 0 | 21508
2 | 4:46.59 | 7:04.45 | 21509 | 53353
3 | 11:51.29 | 7:49.15 | 53354 | 88543
4 | 19:40.44 | 4:01.24 | 88544 | 106642
5 | 23:41.68 | 11:25.52 | 106643 | 158069
6 | 35:07.45 | 7:42.37 | 158070 | 192756
7 | 42:50.07 | 7:01.38 | 192757 | 224369
8 | 49:51.45 | 3:55.28 | 224370 | 242022
9 | 53:46.73 | 9:02.12 | 242023 | 282684
10 | 62:49.10 | 4:28.63 | 282685 | 302847
Track 1
Filename C:\EAC rips\James Brandon Lewis - [2014] Divine Travels\01 Divine.wav
Pre-gap length 0:00:02.00
Peak level 98.7 %
Extraction speed 3.0 X
Track quality 100.0 %
Test CRC C832F7AB
Copy CRC C832F7AB
Track not present in AccurateRip database
Copy OK
Track 2
Filename C:\EAC rips\James Brandon Lewis - [2014] Divine Travels\02 Desensitized.wav
Pre-gap length 0:00:01.00
Peak level 89.1 %
Extraction speed 3.2 X
Track quality 99.9 %
Test CRC F97CBB40
Copy CRC F97CBB40
Track not present in AccurateRip database
Copy OK
Track 3
Filename C:\EAC rips\James Brandon Lewis - [2014] Divine Travels\03 Tradition.wav
Pre-gap length 0:00:02.49
Peak level 97.8 %
Extraction speed 4.1 X
Track quality 100.0 %
Test CRC 6A1F5239
Copy CRC 6A1F5239
Track not present in AccurateRip database
Copy OK
Track 4
Filename C:\EAC rips\James Brandon Lewis - [2014] Divine Travels\04 The Preacher's Baptist Beat.wav
Pre-gap length 0:00:02.00
Peak level 95.8 %
Extraction speed 3.4 X
Track quality 99.9 %
Test CRC 44E7FCC1
Copy CRC 44E7FCC1
Track not present in AccurateRip database
Copy OK
Track 5
Filename C:\EAC rips\James Brandon Lewis - [2014] Divine Travels\05 Wading Child in the Motherless Water.wav
Pre-gap length 0:00:00.49
Peak level 89.1 %
Extraction speed 4.9 X
Track quality 100.0 %
Test CRC 1CFBB837
Copy CRC 1CFBB837
Track not present in AccurateRip database
Copy OK
Track 6
Filename C:\EAC rips\James Brandon Lewis - [2014] Divine Travels\06 A Gathering of Souls.wav
Pre-gap length 0:00:00.49
Peak level 89.1 %
Extraction speed 4.7 X
Track quality 99.9 %
Test CRC B4123CD8
Copy CRC B4123CD8
Track not present in AccurateRip database
Copy OK
Track 7
Filename C:\EAC rips\James Brandon Lewis - [2014] Divine Travels\07 Enclosed.wav
Pre-gap length 0:00:03.00
Peak level 97.3 %
Extraction speed 5.5 X
Track quality 100.0 %
Test CRC 2BB96DE0
Copy CRC 2BB96DE0
Track not present in AccurateRip database
Copy OK
Track 8
Filename C:\EAC rips\James Brandon Lewis - [2014] Divine Travels\08 No Wooden Nickels.wav
Pre-gap length 0:00:02.00
Peak level 88.2 %
Extraction speed 4.5 X
Track quality 99.9 %
Test CRC 1111AEBE
Copy CRC 1111AEBE
Track not present in AccurateRip database
Copy OK
Track 9
Filename C:\EAC rips\James Brandon Lewis - [2014] Divine Travels\09 Organized Minorities.wav
Pre-gap length 0:00:02.00
Peak level 98.6 %
Extraction speed 5.6 X
Track quality 99.9 %
Test CRC C4AFA1BE
Copy CRC C4AFA1BE
Track not present in AccurateRip database
Copy OK
Track 10
Filename C:\EAC rips\James Brandon Lewis - [2014] Divine Travels\10 Travels.wav
Pre-gap length 0:00:01.00
Peak level 97.5 %
Extraction speed 5.9 X
Track quality 100.0 %
Test CRC 0DFA13FA
Copy CRC 0DFA13FA
Track not present in AccurateRip database
Copy OK
None of the tracks are present in the AccurateRip database
No errors occurred
End of status report
---- CUETools DB Plugin V2.1.3
[CTDB TOCID: yyniGHtRyZJ4x8y6vh9Azs4YHmY-] disk not present in database, Submit result: yyniGHtRyZJ4x8y6vh9Azs4YHmY- has been uploaded
==== Log checksum 94C14A2AE3AB2026459B242076566F415FFC3DE5271AE1ED0000F58EBE136AAC ====
 
Содержание индексной карты (.CUE)
REM GENRE Jazz
REM DATE 2014
REM DISCID 890FC50A
REM COMMENT "ExactAudioCopy v1.0b3"
PERFORMER "James Brandon Lewis"
TITLE "Divine Travels"
FILE "01 Divine.wav" WAVE
TRACK 01 AUDIO
TITLE "Divine"
PERFORMER "James Brandon Lewis"
FLAGS DCP
INDEX 01 00:00:00
TRACK 02 AUDIO
TITLE "Desensitized"
PERFORMER "James Brandon Lewis"
FLAGS DCP
INDEX 00 04:45:59
FILE "02 Desensitized.wav" WAVE
INDEX 01 00:00:00
TRACK 03 AUDIO
TITLE "Tradition"
PERFORMER "James Brandon Lewis"
FLAGS DCP
INDEX 00 07:02:08
FILE "03 Tradition.wav" WAVE
INDEX 01 00:00:00
TRACK 04 AUDIO
TITLE "The Preacher's Baptist Beat"
PERFORMER "James Brandon Lewis"
FLAGS DCP
INDEX 00 07:47:15
FILE "04 The Preacher's Baptist Beat.wav" WAVE
INDEX 01 00:00:00
TRACK 05 AUDIO
TITLE "Wading Child in the Motherless Water"
PERFORMER "James Brandon Lewis"
FLAGS DCP
INDEX 00 04:00:62
FILE "05 Wading Child in the Motherless Water.wav" WAVE
INDEX 01 00:00:00
TRACK 06 AUDIO
TITLE "A Gathering of Souls"
PERFORMER "James Brandon Lewis"
FLAGS DCP
INDEX 00 11:25:15
FILE "06 A Gathering of Souls.wav" WAVE
INDEX 01 00:00:00
TRACK 07 AUDIO
TITLE "Enclosed"
PERFORMER "James Brandon Lewis"
FLAGS DCP
INDEX 00 07:39:37
FILE "07 Enclosed.wav" WAVE
INDEX 01 00:00:00
TRACK 08 AUDIO
TITLE "No Wooden Nickels"
PERFORMER "James Brandon Lewis"
FLAGS DCP
INDEX 00 06:59:38
FILE "08 No Wooden Nickels.wav" WAVE
INDEX 01 00:00:00
TRACK 09 AUDIO
TITLE "Organized Minorities"
PERFORMER "James Brandon Lewis"
FLAGS DCP
INDEX 00 03:53:28
FILE "09 Organized Minorities.wav" WAVE
INDEX 01 00:00:00
TRACK 10 AUDIO
TITLE "Travels"
PERFORMER "James Brandon Lewis"
FLAGS DCP
INDEX 00 09:01:12
FILE "10 Travels.wav" WAVE
INDEX 01 00:00:00
 
Об альбоме
 
AllAboutJazz
An auspicious major label debut for a young saxophonist, Divine Travels eschews flamboyance for a deferential, mostly unpretentious bluesy free jazz recording. Lewis, a thirty-something tenor saxophone phenom chose to record here in trio without the safety net of a pianist or accompanying horn.
He chose wisely though, enlisting two superstars musicians, bassist William Parker and drummer Gerald Cleaver. Parker, the current godfather of the avant-garde in jazz, leads his own bands and has been a key figure in the careers of Matthew Shipp, David S. Ware, and Cecil Taylor. Likewise, Cleaver's drum-work intersects with Parker and artists such as Ivo Perelman, Craig Taborn, and Joe Morris.
Lewis goes about this session undaunted by his collaborators. The disc opens with the meditative "Divine," the saxophonist's breathy delivery part-John Coltrane spirituality and part-Sonny Rollins inventiveness. Throughout, he possesses an assured calmness of an old soul inhabiting his sound. Each piece ripens, unhurried and unruffled. Lewis weaves "Wade In The Water" and "Sometimes I Feel Like A Motherless" into one prayer, "Wading Child in The Motherless Water." With Parker's bass as choir the saxophonist's incantation blossoms with Cleaver first accenting, then driving the piece with his sinewy drumming.
He traces a bit of blues through the bebop convention of Sonny Rollins with "Tradition," works through a three-way open-ended improvised piece "Enclosed," and runs wind sprints with Cleaver and Parker on "A Gathering Of Souls," a display of his nimble touch. Two tracks "The Preacher's Baptist Beat" and "Organized Minorities" feature poet Thomas Sayers Ellis reading with the trio. Lewis assimilates every part of his experience into this spiritually infused jazz session. (Mark Corroto)
 
Downbeat Magazine
Divine Travels, tenor saxophonist James Brandon Lewis’s second album, evokes an era when spiritualism and poetry were key elements of the jazz avant-garde, helping to signify its questing nature. A sanctified vibe animates much of this album, with the 30-year-old Buffalo, N.Y., native exploring age-old gospel melodies and his own folk-like motifs alongside two powerhouse veterans from the New York creative music scene: bassist William Parker and drummer Gerald Cleaver. Poet Thomas Sayers Ellis adds hip verse to two tracks, one channeling an image of the church and the appeal of its music (“The Preacher’s Baptist Beat”), the other dealing with race and shifting potential (“Organized Minorities”).
Above all, this is an album of song-in-speech and speech-in-song. Lewis has a natural feel for the rhythms of a sermon, using accessible hooks and incantatory repetition to capture and rouse—though he is just as likely to ruminate, as if singing from a hymnal to himself. He was raised in the church, so its sound is in his bones. Yet he left a gospel career, hearing jazz as his calling. Mentored at CalArts by the likes of Charlie Haden, Wadada Leo Smith and Alphonso Johnson, the saxophonist now lives in New York City, where he truly got religion when it comes to progressive music.
Divine Travels is leagues beyond Lewis’ callow 2010 self-released debut, Moments, an unfocused and unpromising disc that included lapses into too-smooth r&b. This new album has an altogether earthier, more organic aesthetic center, one that sets the saxophonist with a far greater challenge. He rises to it with a tone that has grit as well as polish, and his serrated riffing in “Desensitized” matches well with the beautifully authoritative rumble of Parker and Cleaver. Those two have not only played with avant icons of every stripe; they each have an unerring feel for African-American vernaculars and how to draw inspiration from them beyond cliché in free-jazz or, at least, jazz played freely.
The album’s high point is “Wading Child In The Motherless Water,” which commingles the spirituals “Wading In The Water” and “Sometimes I Feel Like A Motherless Child” into a nearly 12-minute fantasia that taps a well of feeling as deep and wide as the Mississippi River. One does wish that Lewis’s Divine Travel s led to more ecstatic abandon. “A Gathering Of Souls” and “No Wooden Nickels” fade out just when things might have gotten really interesting. Here’s to hoping Lewis keeps maturing as a seeker, avoiding the lures and snares that might hold him earthbound. (Bradley Bambarger)
 
Состав
james brandon lewis - tenor saxophone
william parker - bass
gerald cleaver - drums
&
thomas sayers ellis - spoken word (4, 9)
По всем вопросам пишите личное сообщение пользователю M0p94ok.
00:41
177
Нет комментариев. Ваш будет первым!