Вы используете незарегистрированную версию компонента "Вкладки"!

Поиск

(Free Jazz, Free Improvisation) Paul Flaherty, Chris Corsano - The Beloved Music - 2006, FLAC (tracks+.cue) lossless

(Free Jazz, Free Improvisation) Paul Flaherty, Chris Corsano - The Beloved Music - 2006, FLAC (tracks+.cue) lossless
Треклист:
Paul Flaherty, Chris Corsano / The Beloved Music
Жанр: Free Jazz, Free Improvisation
Страна-производитель диска: США
Год издания диска: 2006
Издатель (лейбл): Family Vineyard
Номер по каталогу: FV39 CD
Страна: США
Аудио кодек: FLAC (*.flac)
Тип рипа: tracks+.cue
Битрейт аудио: lossless
Продолжительность: 42:55
Источник (релизер): вот.сиди (pjc)
Наличие сканов в содержимом раздачи: да
Треклист:
1 The Great Pine Tar Scandal 11:20
2 A Lean And Tortured Heart 18:12
3 What Do You Mean Is A Dry County? 13:07
Recorded live at The Rudyard Kipling, Louisville, Kentucky, on May 4th, 2004.
 
Лог создания рипа
Exact Audio Copy V0.99 prebeta 5 from 4. May 2009
EAC extraction logfile from 15. April 2011, 11:34
Paul Flaherty + Chris Corsano / The Beloved Music
Used drive : HL-DT-STDVDRAM GSA-4167B Adapter: 0 ID: 0
Read mode : Secure
Utilize accurate stream : Yes
Defeat audio cache : Yes
Make use of C2 pointers : No
Read offset correction : 667
Overread into Lead-In and Lead-Out : No
Fill up missing offset samples with silence : Yes
Delete leading and trailing silent blocks : No
Null samples used in CRC calculations : Yes
Used interface : Installed external ASPI interface
Gap handling : Appended to previous track
Used output format : User Defined Encoder
Selected bitrate : 768 kBit/s
Quality : High
Add ID3 tag : No
Command line compressor : C:\Program Files\Exact Audio Copy\FLAC\FLAC.EXE
Additional command line options : -V -8 -T "artist=%a" -T "title=%t" -T "album=%g" -T "date=%y" -T "tracknumber=%n" -T "genre=%m" %s
TOC of the extracted CD
Track | Start | Length | Start sector | End sector
---------------------------------------------------------
1 | 0:00.00 | 11:24.64 | 0 | 51363
2 | 11:24.64 | 18:16.53 | 51364 | 133616
3 | 29:41.42 | 13:13.41 | 133617 | 193132
Track 1
Filename Q:\Rips\Paul Flaherty + Chris Corsano - The Beloved Music\01 - Paul Flaherty + Chris Corsano - The Great Pine Tar Scandal.wav
Pre-gap length 0:00:02.00
Peak level 89.1 %
Track quality 100.0 %
Test CRC BB476DE4
Copy CRC BB476DE4
Accurately ripped (confidence 1) [86756726]
Copy OK
Track 2
Filename Q:\Rips\Paul Flaherty + Chris Corsano - The Beloved Music\02 - Paul Flaherty + Chris Corsano - A Lean And Tortured Heart.wav
Pre-gap length 0:00:02.45
Peak level 89.1 %
Track quality 100.0 %
Test CRC E22E2615
Copy CRC E22E2615
Accurately ripped (confidence 1) [99D936BC]
Copy OK
Track 3
Filename Q:\Rips\Paul Flaherty + Chris Corsano - The Beloved Music\03 - Paul Flaherty + Chris Corsano - What Do You Mean Is A Dry County.wav
Pre-gap length 0:00:02.45
Peak level 89.1 %
Track quality 100.0 %
Test CRC 63050F24
Copy CRC 63050F24
Cannot be verified as accurate (confidence 1) [A04461F2], AccurateRip returned [1F3947D1]
Copy OK
2 track(s) accurately ripped
1 track(s) could not be verified as accurate
Some tracks could not be verified as accurate
No errors occurred
End of status report
 
Содержание индексной карты (.CUE)
REM GENRE Jazz
REM DATE 2006
REM DISCID 290A0F03
REM COMMENT "ExactAudioCopy v0.99pb5"
PERFORMER "Paul Flaherty + Chris Corsano"
TITLE "The Beloved Music "
FILE "01 - Paul Flaherty + Chris Corsano - The Great Pine Tar Scandal.wav" WAVE
TRACK 01 AUDIO
TITLE "The Great Pine Tar Scandal"
PERFORMER "Paul Flaherty + Chris Corsano"
INDEX 01 00:00:00
TRACK 02 AUDIO
TITLE "A Lean And Tortured Heart"
PERFORMER "Paul Flaherty + Chris Corsano"
INDEX 00 11:22:19
FILE "02 - Paul Flaherty + Chris Corsano - A Lean And Tortured Heart.wav" WAVE
INDEX 01 00:00:00
TRACK 03 AUDIO
TITLE "What Do You Mean Is A Dry County"
PERFORMER "Paul Flaherty + Chris Corsano"
INDEX 00 18:14:08
FILE "03 - Paul Flaherty + Chris Corsano - What Do You Mean Is A Dry County.wav" WAVE
INDEX 01 00:00:00
 
Лог проверки качества
AUDIOCHECKER v2.0 beta (build 457) - by Dester - opdester@freemail.hu
~~~~~~~~~~~~~~~~~~~~~~~~~~~~~~~~~~
-=== DO NOT EDIT THIS FILE! ===-
Path: ...\Paul Flaherty + Chris Corsano - The Beloved Music
1 -=- 01 - Paul Flaherty + Chris Corsano - The Great Pine Tar Scandal.flac -=- CDDA (100%)
2 -=- 02 - Paul Flaherty + Chris Corsano - A Lean And Tortured Heart.flac -=- CDDA (100%)
3 -=- 03 - Paul Flaherty + Chris Corsano - What Do You Mean Is A Dry County.flac -=- CDDA (99%)
Summary 99,67% CDDA
230048340
 
Состав
Paul Flaherty tenor saxophone, alto saxophone
Chris Corsano drums
Any questions -> support@pro-jazz.com. По всем вопросам пишите -> support@pro-jazz.com
11:15
134
Нет комментариев. Ваш будет первым!