Вы используете незарегистрированную версию компонента "Вкладки"!

Поиск

(Free Jazz, Contemporary Jazz, Intakt) Omri Ziegele Billiger Bauer - Edges & Friends - 2006, FLAC (tracks+.cue), lossless

(Free Jazz, Contemporary Jazz, Intakt) Omri Ziegele Billiger Bauer - Edges & Friends - 2006, FLAC (tracks+.cue), lossless
Издатель (лейбл):
Треклист:
Omri Ziegele Billiger Bauer / Edges & Friends
Жанр: Free Jazz, Contemporary Jazz, Intakt
Страна-производитель диска: Switzerland
Год издания: 2006
Издатель (лейбл): Intakt Records
Номер по каталогу: Intakt CD 112
Страна: Switzerland
Аудиокодек: FLAC (*.flac)
Тип рипа: tracks+.cue
Битрейт аудио: lossless
Продолжительность: 47:56
Источник (релизер): losslessworld
Наличие сканов в содержимом раздачи:
Треклист:
1 Prologue 0:08
2 Nursery Rhyme 2:37
3 Two Ways To No Answers 6:19
4 Edges & Friends 17:51
5 Be There 4:29
6 I We Were Children 2:39
7 Holes Of Time 7:42
8 Africa Now 6:08
 
Лог создания рипа
X Lossless Decoder version 20110212 (127.0)
XLD extraction logfile from 2011-02-25 23:28:03 +0100
Billiger Bauer / Edges and Friends
Used drive : HL-DT-ST DVDRAM GP08NU20 (revision 1.00)
Ripper mode : XLD Secure Ripper
Disable audio cache : OK for the drive with a cache less than 1375KiB
Make use of C2 pointers : NO
Read offset correction : 102
Max retry count : 100
Gap status : Analyzed, Appended (except HTOA)
TOC of the extracted CD
Track | Start | Length | Start sector | End sector
---------------------------------------------------------
1 | 00:00:00 | 00:08:00 | 0 | 599
2 | 00:08:00 | 02:37:20 | 600 | 12394
3 | 02:45:20 | 06:18:74 | 12395 | 40818
4 | 09:04:19 | 17:51:40 | 40819 | 121183
5 | 26:55:59 | 04:29:66 | 121184 | 141424
6 | 31:25:50 | 02:39:47 | 141425 | 153396
7 | 34:05:22 | 07:42:42 | 153397 | 188088
8 | 41:47:64 | 06:08:35 | 188089 | 215723
AccurateRip Summary
Track 01 : OK (confidence 1)
Track 02 : OK (confidence 1)
Track 03 : OK (confidence 1)
Track 04 : OK (confidence 1)
Track 05 : OK (confidence 1)
Track 06 : OK (confidence 1)
Track 07 : OK (confidence 1)
Track 08 : OK (confidence 1)
->All tracks accurately ripped.
All Tracks
Album gain : -3.38 dB
Peak : 1.000000
Statistics
Read error : 0
Jitter error (maybe fixed) : 0
Retry sector count : 2
Damaged sector count : 0
Track 01
Filename : /Volumes/8-Jazz + altro/ Flac/Billiger Bauer - Edges and Friends (2006) [FLAC] {Intakt Records CD 112}/01 - Prologue.flac
Pre-gap length : 00:02:00
Track gain : 13.67 dB
Peak : 0.126404
CRC32 hash (test run) : A8CD41E9
CRC32 hash : A8CD41E9
CRC32 hash (skip zero) : EB000540
AccurateRip signature : DDF95DDC
->Accurately ripped! (confidence 1)
Statistics
Read error : 0
Jitter error (maybe fixed) : 0
Retry sector count : 0
Damaged sector count : 0
Track 02
Filename : /Volumes/8-Jazz + altro/ Flac/Billiger Bauer - Edges and Friends (2006) [FLAC] {Intakt Records CD 112}/02 - Nursery Rhyme.flac
Pre-gap length : 00:01:45
Track gain : -2.34 dB
Peak : 0.980225
CRC32 hash (test run) : 0300E676
CRC32 hash : 0300E676
CRC32 hash (skip zero) : EF8193FF
AccurateRip signature : F92FF939
->Accurately ripped! (confidence 1)
Statistics
Read error : 0
Jitter error (maybe fixed) : 0
Retry sector count : 1
Damaged sector count : 0
Track 03
Filename : /Volumes/8-Jazz + altro/ Flac/Billiger Bauer - Edges and Friends (2006) [FLAC] {Intakt Records CD 112}/03 - Two Ways To No Answers.flac
Pre-gap length : 00:01:45
Track gain : 1.03 dB
Peak : 0.968811
CRC32 hash (test run) : D181D8EA
CRC32 hash : D181D8EA
CRC32 hash (skip zero) : 18691218
AccurateRip signature : EF3C1501
->Accurately ripped! (confidence 1)
Statistics
Read error : 0
Jitter error (maybe fixed) : 0
Retry sector count : 1
Damaged sector count : 0
Track 04
Filename : /Volumes/8-Jazz + altro/ Flac/Billiger Bauer - Edges and Friends (2006) [FLAC] {Intakt Records CD 112}/04 - Edges and Friends.flac
Pre-gap length : 00:01:45
Track gain : -2.25 dB
Peak : 1.000000
CRC32 hash (test run) : 0231F283
CRC32 hash : 0231F283
CRC32 hash (skip zero) : 447CD0D5
AccurateRip signature : E4C61B97
->Accurately ripped! (confidence 1)
Statistics
Read error : 0
Jitter error (maybe fixed) : 0
Retry sector count : 0
Damaged sector count : 0
Track 05
Filename : /Volumes/8-Jazz + altro/ Flac/Billiger Bauer - Edges and Friends (2006) [FLAC] {Intakt Records CD 112}/05 - Be There.flac
Pre-gap length : 00:01:45
Track gain : -2.47 dB
Peak : 0.948395
CRC32 hash (test run) : CB869DC4
CRC32 hash : CB869DC4
CRC32 hash (skip zero) : 86127F7E
AccurateRip signature : 442B9554
->Accurately ripped! (confidence 1)
Statistics
Read error : 0
Jitter error (maybe fixed) : 0
Retry sector count : 0
Damaged sector count : 0
Track 06
Filename : /Volumes/8-Jazz + altro/ Flac/Billiger Bauer - Edges and Friends (2006) [FLAC] {Intakt Records CD 112}/06 - If We Were Children.flac
Pre-gap length : 00:01:45
Track gain : -0.84 dB
Peak : 0.994019
CRC32 hash (test run) : B072337C
CRC32 hash : B072337C
CRC32 hash (skip zero) : 3F088C4D
AccurateRip signature : A0F9BDA0
->Accurately ripped! (confidence 1)
Statistics
Read error : 0
Jitter error (maybe fixed) : 0
Retry sector count : 0
Damaged sector count : 0
Track 07
Filename : /Volumes/8-Jazz + altro/ Flac/Billiger Bauer - Edges and Friends (2006) [FLAC] {Intakt Records CD 112}/07 - Holes Of Time.flac
Pre-gap length : 00:01:45
Track gain : -5.25 dB
Peak : 1.000000
CRC32 hash (test run) : DD5681D7
CRC32 hash : DD5681D7
CRC32 hash (skip zero) : 27438C35
AccurateRip signature : 9E8526F4
->Accurately ripped! (confidence 1)
Statistics
Read error : 0
Jitter error (maybe fixed) : 0
Retry sector count : 0
Damaged sector count : 0
Track 08
Filename : /Volumes/8-Jazz + altro/ Flac/Billiger Bauer - Edges and Friends (2006) [FLAC] {Intakt Records CD 112}/08 - Africa Now.flac
Pre-gap length : 00:01:45
Track gain : -5.32 dB
Peak : 1.000000
CRC32 hash (test run) : 229D0989
CRC32 hash : 229D0989
CRC32 hash (skip zero) : 426DC533
AccurateRip signature : 26624CD1
->Accurately ripped! (confidence 1)
Statistics
Read error : 0
Jitter error (maybe fixed) : 0
Retry sector count : 0
Damaged sector count : 0
No errors occurred
End of status report
 
Содержание индексной карты (.CUE)
TITLE "Edges and Friends"
PERFORMER "Billiger Bauer"
CATALOG 7640120191122
REM GENRE "Jazz"
REM DATE "2006"
REM DISCID 640B3C08
FILE "CDImage.wav" WAVE
TRACK 01 AUDIO
TITLE "Prologue"
ISRC CH2700600440
FLAGS DCP
INDEX 01 00:00:00
TRACK 02 AUDIO
TITLE "Nursery Rhyme"
ISRC CH2700600441
FLAGS DCP
INDEX 00 00:06:30
INDEX 01 00:08:00
TRACK 03 AUDIO
TITLE "Two Ways To No Answers"
ISRC CH2700600442
FLAGS DCP
INDEX 00 02:43:50
INDEX 01 02:45:20
TRACK 04 AUDIO
TITLE "Edges and Friends"
ISRC CH2700600443
FLAGS DCP
INDEX 00 09:02:49
INDEX 01 09:04:19
TRACK 05 AUDIO
TITLE "Be There"
ISRC CH2700600444
FLAGS DCP
INDEX 00 26:54:14
INDEX 01 26:55:59
TRACK 06 AUDIO
TITLE "If We Were Children"
ISRC CH2700600445
FLAGS DCP
INDEX 00 31:24:05
INDEX 01 31:25:50
TRACK 07 AUDIO
TITLE "Holes Of Time"
ISRC CH2700600446
FLAGS DCP
INDEX 00 34:03:52
INDEX 01 34:05:22
TRACK 08 AUDIO
TITLE "Africa Now"
ISRC CH2700600447
FLAGS DCP
INDEX 00 41:46:19
INDEX 01 41:47:64
 
Лог проверки качества
d:\>d:\aucdtect -d/-m0 d:\zzz\*.wav
auCDtect: CD records authenticity detector, version 0.8.2
Copyright (c) 2004 Oleg Berngardt. All rights reserved.
Copyright (c) 2004 Alexander Djourik. All rights reserved.
------------------------------------------------------------
Processing file: [01. Prologue.wav]
------------------------------------------------------------
This track looks like CDDA with probability 85%
------------------------------------------------------------
Processing file: [02. Nursery Rhyme.wav]
------------------------------------------------------------
This track looks like CDDA with probability 100%
------------------------------------------------------------
Processing file: [03. Two Ways To No Answers.wav]
------------------------------------------------------------
This track looks like CDDA with probability 100%
------------------------------------------------------------
Processing file: [04. Edges and Friends.wav]
------------------------------------------------------------
This track looks like CDDA with probability 100%
------------------------------------------------------------
Processing file: [05. Be There.wav]
------------------------------------------------------------
This track looks like CDDA with probability 100%
------------------------------------------------------------
Processing file: [06. If We Were Children.wav]
------------------------------------------------------------
This track looks like CDDA with probability 100%
------------------------------------------------------------
Processing file: [07. Holes Of Time.wav]
------------------------------------------------------------
This track looks like CDDA with probability 100%
------------------------------------------------------------
Processing file: [08. Africa Now.wav]
------------------------------------------------------------
This track looks like CDDA with probability 100%
------------------------------------------------------------
Final Conclusion:
------------------------------------------------------------
These tracks looks like CDDA with probability 100%
Доп. информация:
 
Liner Notes
Billiger Bauer is free and structured, Billiger Bauer is "Edges & Friends": Outer edge community of musicians of the post 68 generation as awareness of the local in an open discussion with artistic disposition, melancholy, recalcitrancy, vi-tality, free improvisation and composition, imagination and expertise.
Christian Broecking, Liner Notes
The pieces demonstrate how well this team works together, how precise the musical entrances and exits function, how the subtle dramaturgy all flows together. The fruit of many years.
Thomas Meyer, Liner Notes
 
Состав
Alto Saxophone, Voice, Composed By – Omri Ziegele
Bass – Herbert Kramis
Cello – Bernhard Göttert
Drums – Marco Käppeli
Drums, Bugle – Dieter Ulrich
Electric Bass – Jan Schlegel
Piano – Gabriela Friedli
Soprano Saxophone – Jürg Wickihalder
Any questions -> support@pro-jazz.com. По всем вопросам пишите -> support@pro-jazz.com
13:23
156
Нет комментариев. Ваш будет первым!