Вы используете незарегистрированную версию компонента "Вкладки"!

Поиск

(Free Jazz / CIMP) Steve Swell Trio - Flurries Warm and Clear - 2000, FLAC (image+.cue), lossless

Треклист:
Steve Swell Trio - Flurries Warm and Clear
Жанр: Free Jazz / CIMP
Год выпуска диска: 2000
Производитель диска: USA (CIMP)
Аудио кодек: FLAC
Тип рипа: image+.cue
Битрейт аудио: lossless
Продолжительность: 65:38
Источник: свой диск
Трэклист:
01 Early Light`s First Shimmering
02 Primordial Muse
03 Acoustic Rumble
04 Consume This
05 Come On In, The Music`s Fine
06 Enigma In Tone Colors
07 Storm Hopping
08 Where the Dew Glisteens
09 Concerning the Spiritual in Kandinsky
10 Under the Peripherial
11 With the Shove Comes a Push
Доп. информация:
Steve Swell - tb
Ned Rothenberg - cl, as
Tomas Ulrich - cello
rec NY July 12 & 13, 1999
 
отчёт ЕАС
Exact Audio Copy V0.99 prebeta 5 from 4. May 2009
EAC extraction logfile from 12. April 2010, 18:28
Steve Swell Trio / Flurries Warm and Clear
Used drive : Optiarc DVD RW AD-5200S Adapter: 1 ID: 0
Read mode : Secure
Utilize accurate stream : Yes
Defeat audio cache : Yes
Make use of C2 pointers : No
Read offset correction : 48
Overread into Lead-In and Lead-Out : No
Fill up missing offset samples with silence : Yes
Delete leading and trailing silent blocks : No
Null samples used in CRC calculations : Yes
Used interface : Installed external ASPI interface
Used output format : User Defined Encoder
Selected bitrate : 192 kBit/s
Quality : High
Add ID3 tag : No
Command line compressor : C:\Program Files\Burrrn\flac.exe
Additional command line options : -T "DATE=%y" -T "GENRE=%m" -8 -V %s
TOC of the extracted CD
Track | Start | Length | Start sector | End sector
---------------------------------------------------------
1 | 0:00.00 | 3:34.14 | 0 | 16063
2 | 3:34.14 | 5:18.12 | 16064 | 39925
3 | 8:52.26 | 10:57.26 | 39926 | 89226
4 | 19:49.52 | 3:44.07 | 89227 | 106033
5 | 23:33.59 | 6:02.47 | 106034 | 133230
6 | 29:36.31 | 5:13.33 | 133231 | 156738
7 | 34:49.64 | 3:41.15 | 156739 | 173328
8 | 38:31.04 | 6:11.46 | 173329 | 201199
9 | 44:42.50 | 9:34.50 | 201200 | 244299
10 | 54:17.25 | 4:36.64 | 244300 | 265063
11 | 58:54.14 | 6:44.23 | 265064 | 295386
Range status and errors
Selected range
Filename F:\EAC\Flurries Warm and Clear\Steve Swell Trio - Flurries Warm and Clear.wav
Peak level 100.0 %
Range quality 100.0 %
Copy CRC AE7D24B6
Copy OK
No errors occurred
AccurateRip summary
Track 1 not present in database
Track 2 not present in database
Track 3 not present in database
Track 4 not present in database
Track 5 not present in database
Track 6 not present in database
Track 7 not present in database
Track 8 not present in database
Track 9 not present in database
Track 10 not present in database
Track 11 not present in database
None of the tracks are present in the AccurateRip database
End of status report
По всем вопросам пишите личное сообщение пользователю M0p94ok.
21:02
198
Нет комментариев. Ваш будет первым!