Вы используете незарегистрированную версию компонента "Вкладки"!

Поиск

(free jazz, CIMP) [cd] Steve Swell - Suite For Players, Listeners, And Other Dreamers (2003), FLAC (tracks+.cue), lossless

(free jazz, CIMP) [cd] Steve Swell - Suite For Players, Listeners, And Other Dreamers (2003), FLAC (tracks+.cue), lossless
Треклист:
(free jazz) [cd] Steve Swell - Suite For Players, Listeners, And Other Dreamers (2003), FLAC (tracks+.cue), lossless


Steve Swell - Suite For Players, Listeners, And Other Dreamers (2003)

Жанр: free jazz
Год выпуска: 2003
Издатель (лейбл):CIMP #292
Формат: FLAC (tracks+.cue)
Битрейт аудио: lossless
Продолжительность 1`11`46
Источник: what.cd

tracks

1 Prelude To A Prelude 15:32
2 Groove Merchants Of Redwood 10:31
3 Outside Inn 6:42
4 Calling All Travelers 8:10
5 Wildflowers Grow Along This Highway Too 5:21
6 Sailing Home 10:28
7 Giving Thanks Once Again 5:51
8 Validation 8:46


 
.log
Exact Audio Copy V1.0 beta 3 from 29. August 2011
EAC extraction logfile from 24. December 2014, 18:26
Steve Swell / Suite For Players, Listeners, And Other Dreamers
Used drive : SlimtypeDVD A DS8A5SH Adapter: 0 ID: 1
Read mode : Secure
Utilize accurate stream : Yes
Defeat audio cache : Yes
Make use of C2 pointers : No
Read offset correction : 6
Overread into Lead-In and Lead-Out : No
Fill up missing offset samples with silence : Yes
Delete leading and trailing silent blocks : No
Null samples used in CRC calculations : Yes
Used interface : Native Win32 interface for Win NT & 2000
Gap handling : Appended to previous track
Used output format : User Defined Encoder
Selected bitrate : 128 kBit/s
Quality : High
Add ID3 tag : No
Command line compressor : C:\Program Files (x86)\Exact Audio Copy\flac.exe
Additional command line options : -V -8 -T "Genre=%genre%" -T "Artist=%artist%" -T "Title=%title%" -T "Album=%albumtitle%" -T "Date=%year%" -T "Tracknumber=%tracknr%" -T "Comment=%comment%" %source%
TOC of the extracted CD
Track | Start | Length | Start sector | End sector
---------------------------------------------------------
1 | 0:00.00 | 15:35.45 | 0 | 70169
2 | 15:35.45 | 10:34.50 | 70170 | 117769
3 | 26:10.20 | 6:45.19 | 117770 | 148163
4 | 32:55.39 | 8:13.50 | 148164 | 185188
5 | 41:09.14 | 5:24.19 | 185189 | 209507
6 | 46:33.33 | 10:31.43 | 209508 | 256875
7 | 57:05.01 | 5:54.10 | 256876 | 283435
8 | 62:59.11 | 8:46.64 | 283436 | 322949
Track 1
Filename D:\Suite For Players, Listeners, And Other Dreamers\01 - Prelude To A Prelude.wav
Pre-gap length 0:00:02.00
Peak level 97.2 %
Extraction speed 1.4 X
Track quality 99.9 %
Test CRC AD14B682
Copy CRC AD14B682
Cannot be verified as accurate (confidence 1) [07605836], AccurateRip returned [3DFC8068] (AR v2)
Copy OK
Track 2
Filename D:\Suite For Players, Listeners, And Other Dreamers\02 - Groove Merchants Of Redwood.wav
Pre-gap length 0:00:02.57
Peak level 96.3 %
Extraction speed 1.8 X
Track quality 100.0 %
Test CRC FD2F5CA7
Copy CRC FD2F5CA7
Accurately ripped (confidence 1) [2A31D6B9] (AR v2)
Copy OK
Track 3
Filename D:\Suite For Players, Listeners, And Other Dreamers\03 - Outside Inn.wav
Pre-gap length 0:00:02.58
Peak level 73.8 %
Extraction speed 2.0 X
Track quality 100.0 %
Test CRC 4F3FB441
Copy CRC 4F3FB441
Accurately ripped (confidence 1) [C09FC8CD] (AR v2)
Copy OK
Track 4
Filename D:\Suite For Players, Listeners, And Other Dreamers\04 - Calling All Travelers.wav
Pre-gap length 0:00:02.57
Peak level 93.3 %
Extraction speed 2.0 X
Track quality 99.9 %
Test CRC 667E0B28
Copy CRC 667E0B28
Accurately ripped (confidence 1) [B0B046ED] (AR v2)
Copy OK
Track 5
Filename D:\Suite For Players, Listeners, And Other Dreamers\05 - Wildflowers Grow Along This Highway Too.wav
Pre-gap length 0:00:02.58
Peak level 32.6 %
Extraction speed 2.2 X
Track quality 100.0 %
Test CRC 81C43BD5
Copy CRC 81C43BD5
Accurately ripped (confidence 1) [75AF1E93] (AR v2)
Copy OK
Track 6
Filename D:\Suite For Players, Listeners, And Other Dreamers\06 - Sailing Home.wav
Pre-gap length 0:00:02.58
Peak level 96.0 %
Extraction speed 2.4 X
Track quality 100.0 %
Test CRC 74160899
Copy CRC 74160899
Accurately ripped (confidence 1) [6C25D3F7] (AR v2)
Copy OK
Track 7
Filename D:\Suite For Players, Listeners, And Other Dreamers\07 - Giving Thanks Once Again.wav
Pre-gap length 0:00:02.58
Peak level 43.6 %
Extraction speed 2.5 X
Track quality 100.0 %
Test CRC C65EF468
Copy CRC C65EF468
Accurately ripped (confidence 1) [B269DC5B] (AR v2)
Copy OK
Track 8
Filename D:\Suite For Players, Listeners, And Other Dreamers\08 - Validation.wav
Pre-gap length 0:00:02.57
Peak level 93.5 %
Extraction speed 2.5 X
Track quality 99.9 %
Test CRC 134D824A
Copy CRC 134D824A
Accurately ripped (confidence 1) [0F598A33] (AR v2)
Copy OK
7 трек(и) скопированы точно
1 трек(и) не удалось проверить на точность
Some tracks could not be verified as accurate
No errors occurred
End of status report
==== Log checksum 821D04A94E6D469E2B725CF3AB914179392B1DE9BB3C5CC742FF21A286166E8F ====
 
.cue
REM GENRE Jazz
REM DATE 2003
REM DISCID 8410D208
REM COMMENT "ExactAudioCopy v1.0b3"
PERFORMER "Steve Swell"
TITLE "Suite For Players, Listeners, And Other Dreamers"
FILE "01 - Prelude To A Prelude.wav" WAVE
TRACK 01 AUDIO
TITLE "Prelude To A Prelude"
PERFORMER "Steve Swell"
INDEX 01 00:00:00
TRACK 02 AUDIO
TITLE "Groove Merchants Of Redwood"
PERFORMER "Steve Swell"
INDEX 00 15:32:63
FILE "02 - Groove Merchants Of Redwood.wav" WAVE
INDEX 01 00:00:00
TRACK 03 AUDIO
TITLE "Outside Inn"
PERFORMER "Steve Swell"
INDEX 00 10:31:67
FILE "03 - Outside Inn.wav" WAVE
INDEX 01 00:00:00
TRACK 04 AUDIO
TITLE "Calling All Travelers"
PERFORMER "Steve Swell"
INDEX 00 06:42:37
FILE "04 - Calling All Travelers.wav" WAVE
INDEX 01 00:00:00
TRACK 05 AUDIO
TITLE "Wildflowers Grow Along This Highway Too"
PERFORMER "Steve Swell"
INDEX 00 08:10:67
FILE "05 - Wildflowers Grow Along This Highway Too.wav" WAVE
INDEX 01 00:00:00
TRACK 06 AUDIO
TITLE "Sailing Home"
PERFORMER "Steve Swell"
INDEX 00 05:21:36
FILE "06 - Sailing Home.wav" WAVE
INDEX 01 00:00:00
TRACK 07 AUDIO
TITLE "Giving Thanks Once Again"
PERFORMER "Steve Swell"
INDEX 00 10:28:60
FILE "07 - Giving Thanks Once Again.wav" WAVE
INDEX 01 00:00:00
TRACK 08 AUDIO
TITLE "Validation"
PERFORMER "Steve Swell"
INDEX 00 05:51:28
FILE "08 - Validation.wav" WAVE
INDEX 01 00:00:00
 
.accurip
[CUETools log; Date: 29/07/15 15:25:11; Version: 2.1.4]
[CTDB TOCID: olS8U8IX1bCzuy51tY_nsCghJ8I-] disk not present in database.
[AccurateRip ID: 001852cf-009c45be-8410d208] found.
Track [ CRC | V2 ] Status
01 [70ec1475|07605836] (0+1/3) Accurately ripped
02 [4bb22908|2a31d6b9] (0+2/2) Accurately ripped
03 [3cd3c0fc|c09fc8cd] (0+2/2) Accurately ripped
04 [7f70c8cd|b0b046ed] (0+2/2) Accurately ripped
05 [18064c24|75af1e93] (0+2/2) Accurately ripped
06 [feaf2a25|6c25d3f7] (0+2/2) Accurately ripped
07 [d5b18561|b269dc5b] (0+2/2) Accurately ripped
08 [c21f8992|0f598a33] (0+2/2) Accurately ripped
Track Peak [ CRC32 ] [W/O NULL] [ LOG ]
-- 97.2 [F5A05159] [78EE79ED]
01 97.2 [AD14B682] [21D506BC] CRC32
02 96.3 [FD2F5CA7] [F0F6989B] CRC32
03 73.8 [4F3FB441] [A9C4C09E] CRC32
04 93.3 [667E0B28] [D09886BD] CRC32
05 32.6 [81C43BD5] [3FCC36CE] CRC32
06 96.0 [74160899] [D45EDEEF] CRC32
07 43.6 [C65EF468] [2E16336A] CRC32
08 93.5 [134D824A] [F4CC104D] CRC32

другие релизы
По всем вопросам пишите личное сообщение пользователю M0p94ok.
14:42
164
Нет комментариев. Ваш будет первым!