Поиск

(Free Jazz) [CD] Ran Blake - Plays Piano Solo - 1965 (2013), FLAC (tracks+.cue), lossless

(Free Jazz) [CD] Ran Blake - Plays Piano Solo - 1965 (2013), FLAC (tracks+.cue), lossless
Треклист:
Ran Blake - Plays Piano Solo
Жанр: Free Jazz
Носитель: CD
Страна-производитель диска: США
Год издания: 2013
Издатель (лейбл): ESP-Disk'
Номер по каталогу: 1011
Аудиокодек: FLAC (*.flac)
Тип рипа: tracks+.cue
Битрейт аудио: lossless
Продолжительность: 35:19
Источник (релизер): Iegou (what)
Наличие сканов в содержимом раздачи: нет
Треклист:
01. Vanguard (Blake) - 2:35
02. Stratusphunk (Russell) - 3:56
03. Sleepy Time Gal (Alden-Egan-Lorenzo-Whiting) - 4:46
04. On Green Dolphin Street (Washington-Kaper) - 2:49
05. Eric (Blake) - 2:04
06. There'll Be Some Changes Made (Higgins-Overstreet) - 1:56
07. Good Mornin' Heartache (Higgenbotham-Drake-Fisher) - 3:32
08. Sister Tee (Blake) - 4:53
09. Lonely Woman (Coleman) - 4:25
10. Birmingham, U.S.A. (Blake) - 4:23
Состав:
Ran Blake - solo piano
Recorded in New York on May 1, 1965.
 
Лог создания рипа
Exact Audio Copy V1.0 beta 3 from 29. August 2011
EAC extraction logfile from 31. August 2014, 14:25
Ran Blake / Plays Piano Solo
Used drive : TSSTcorpCDDVDW SH-S223C Adapter: 3 ID: 0
Read mode : Secure
Utilize accurate stream : Yes
Defeat audio cache : Yes
Make use of C2 pointers : No
Read offset correction : 697
Overread into Lead-In and Lead-Out : No
Fill up missing offset samples with silence : Yes
Delete leading and trailing silent blocks : No
Null samples used in CRC calculations : Yes
Used interface : Native Win32 interface for Win NT & 2000
Gap handling : Appended to previous track
Used output format : User Defined Encoder
Selected bitrate : 1024 kBit/s
Quality : High
Add ID3 tag : No
Command line compressor : C:\Program Files (x86)\Exact Audio Copy\Flac\flac.exe
Additional command line options : -8 -V -T "ARTIST=%artist%" -T "TITLE=%title%" -T "ALBUM=%albumtitle%" -T "DATE=%year%" -T "TRACKNUMBER=%tracknr%" -T "GENRE=%genre%" -T "PERFORMER=%albuminterpret%" -T "COMPOSER=%composer%" %haslyrics%--tag-from-file=LYRICS="%lyricsfile%"%haslyrics% -T "ALBUMARTIST=%albumartist%" -T "DISCNUMBER=%cdnumber%" -T "TOTALDISCS=%totalcds%" -T "TOTALTRACKS=%numtracks%" -T "COMMENT=%comment%" %source% -o %dest%
TOC of the extracted CD
Track | Start | Length | Start sector | End sector
---------------------------------------------------------
1 | 0:00.00 | 2:35.13 | 0 | 11637
2 | 2:35.13 | 3:55.50 | 11638 | 29312
3 | 6:30.63 | 4:45.53 | 29313 | 50740
4 | 11:16.41 | 2:49.35 | 50741 | 63450
5 | 14:06.01 | 2:04.02 | 63451 | 72752
6 | 16:10.03 | 1:56.29 | 72753 | 81481
7 | 18:06.32 | 3:32.16 | 81482 | 97397
8 | 21:38.48 | 4:53.05 | 97398 | 119377
9 | 26:31.53 | 4:24.49 | 119378 | 139226
10 | 30:56.27 | 4:23.23 | 139227 | 158974
Track 1
Filename D:\EAC Rips\Ran Blake - Plays Piano Solo (2013)\01 - Vanguard.wav
Pre-gap length 0:00:02.00
Peak level 90.2 %
Extraction speed 1.8 X
Track quality 100.0 %
Test CRC 9BD483FF
Copy CRC 9BD483FF
Accurately ripped (confidence 1) [3C076F2A] (AR v2)
Copy OK
Track 2
Filename D:\EAC Rips\Ran Blake - Plays Piano Solo (2013)\02 - Stratusphunk.wav
Peak level 79.8 %
Extraction speed 2.1 X
Track quality 100.0 %
Test CRC 91AD8C99
Copy CRC 91AD8C99
Accurately ripped (confidence 1) [CDD3DB26] (AR v2)
Copy OK
Track 3
Filename D:\EAC Rips\Ran Blake - Plays Piano Solo (2013)\03 - Sleepy Time Gal.wav
Peak level 84.0 %
Extraction speed 2.4 X
Track quality 100.0 %
Test CRC BDAD67B9
Copy CRC BDAD67B9
Accurately ripped (confidence 1) [7E8A8EB1] (AR v2)
Copy OK
Track 4
Filename D:\EAC Rips\Ran Blake - Plays Piano Solo (2013)\04 - On Green Dolphin Street.wav
Peak level 83.4 %
Extraction speed 2.4 X
Track quality 100.0 %
Test CRC 44CC9F09
Copy CRC 44CC9F09
Accurately ripped (confidence 1) [72D4A507] (AR v2)
Copy OK
Track 5
Filename D:\EAC Rips\Ran Blake - Plays Piano Solo (2013)\05 - Eric.wav
Peak level 81.1 %
Extraction speed 2.3 X
Track quality 100.0 %
Test CRC D1116130
Copy CRC D1116130
Accurately ripped (confidence 1) [CD07C151] (AR v2)
Copy OK
Track 6
Filename D:\EAC Rips\Ran Blake - Plays Piano Solo (2013)\06 - There'll Be Some Change Made.wav
Peak level 75.5 %
Extraction speed 2.4 X
Track quality 100.0 %
Test CRC 467E7F1E
Copy CRC 467E7F1E
Accurately ripped (confidence 1) [CBC7EE1C] (AR v2)
Copy OK
Track 7
Filename D:\EAC Rips\Ran Blake - Plays Piano Solo (2013)\07 - Good Mornin' Heartache.wav
Peak level 89.8 %
Extraction speed 2.8 X
Track quality 100.0 %
Test CRC C4198B4F
Copy CRC C4198B4F
Accurately ripped (confidence 1) [0EAFC39C] (AR v2)
Copy OK
Track 8
Filename D:\EAC Rips\Ran Blake - Plays Piano Solo (2013)\08 - Sister Tee.wav
Peak level 83.6 %
Extraction speed 3.1 X
Track quality 100.0 %
Test CRC 37CFC3AB
Copy CRC 37CFC3AB
Accurately ripped (confidence 1) [DB76475C] (AR v2)
Copy OK
Track 9
Filename D:\EAC Rips\Ran Blake - Plays Piano Solo (2013)\09 - Lonely Woman.wav
Peak level 84.8 %
Extraction speed 3.2 X
Track quality 100.0 %
Test CRC F7B56C3D
Copy CRC F7B56C3D
Accurately ripped (confidence 1) [496679A6] (AR v2)
Copy OK
Track 10
Filename D:\EAC Rips\Ran Blake - Plays Piano Solo (2013)\10 - Birmingham, U.S.A..wav
Peak level 83.6 %
Extraction speed 3.0 X
Track quality 99.9 %
Test CRC 62E187BC
Copy CRC 62E187BC
Accurately ripped (confidence 1) [F4CB1D2E] (AR v2)
Copy OK
All tracks accurately ripped
No errors occurred
End of status report
---- CUETools DB Plugin V2.1.3
[CTDB TOCID: kJB3_jdazVSS0consAyFGVcCRio-] disk not present in database, Submit result: kJB3_jdazVSS0consAyFGVcCRio- has been uploaded
==== Log checksum 1FFD6AD7AA7EE4752326B0822A88A1F1E1DC366187FD4EF92DE6E683A8B39DE1 ====
 
Содержание индексной карты (.CUE)
REM GENRE Jazz
REM DATE 1965
REM DISCID 9508470A
REM COMMENT "ExactAudioCopy v1.0b3"
PERFORMER "Ran Blake"
TITLE "Plays Piano Solo"
FILE "01 - Vanguard.wav" WAVE
TRACK 01 AUDIO
TITLE "Vanguard"
PERFORMER "Ran Blake"
INDEX 01 00:00:00
FILE "02 - Stratusphunk.wav" WAVE
TRACK 02 AUDIO
TITLE "Stratusphunk"
PERFORMER "Ran Blake"
INDEX 01 00:00:00
FILE "03 - Sleepy Time Gal.wav" WAVE
TRACK 03 AUDIO
TITLE "Sleepy Time Gal"
PERFORMER "Ran Blake"
INDEX 01 00:00:00
FILE "04 - On Green Dolphin Street.wav" WAVE
TRACK 04 AUDIO
TITLE "On Green Dolphin Street"
PERFORMER "Ran Blake"
INDEX 01 00:00:00
FILE "05 - Eric.wav" WAVE
TRACK 05 AUDIO
TITLE "Eric"
PERFORMER "Ran Blake"
INDEX 01 00:00:00
FILE "06 - There'll Be Some Changes Made.wav" WAVE
TRACK 06 AUDIO
TITLE "There'll Be Some Changes Made"
PERFORMER "Ran Blake"
INDEX 01 00:00:00
FILE "07 - Good Mornin' Heartache.wav" WAVE
TRACK 07 AUDIO
TITLE "Good Mornin' Heartache"
PERFORMER "Ran Blake"
INDEX 01 00:00:00
FILE "08 - Sister Tee.wav" WAVE
TRACK 08 AUDIO
TITLE "Sister Tee"
PERFORMER "Ran Blake"
INDEX 01 00:00:00
FILE "09 - Lonely Woman.wav" WAVE
TRACK 09 AUDIO
TITLE "Lonely Woman"
PERFORMER "Ran Blake"
INDEX 01 00:00:00
FILE "10 - Birmingham, U.S.A..wav" WAVE
TRACK 10 AUDIO
TITLE "Birmingham, U.S.A."
PERFORMER "Ran Blake"
INDEX 01 00:00:00
 
Отчет CUETools
[CUETools log; Date: 04.09.2014 23:49:01; Version: 2.1.5]
[CTDB TOCID: kJB3_jdazVSS0consAyFGVcCRio-] found.
Track | CTDB Status
1 | (1/1) Accurately ripped
2 | (1/1) Accurately ripped
3 | (1/1) Accurately ripped
4 | (1/1) Accurately ripped
5 | (1/1) Accurately ripped
6 | (1/1) Accurately ripped
7 | (1/1) Accurately ripped
8 | (1/1) Accurately ripped
9 | (1/1) Accurately ripped
10 | (1/1) Accurately ripped
[AccurateRip ID: 000c9424-006535cc-9508470a] found.
Track [ CRC | V2 ] Status
01 [6de9315a|3c076f2a] (0+1/1) Accurately ripped
02 [70693c29|cdd3db26] (0+1/1) Accurately ripped
03 [537f1b7c|7e8a8eb1] (0+1/1) Accurately ripped
04 [0631e6ca|72d4a507] (0+1/1) Accurately ripped
05 [781d18df|cd07c151] (0+1/1) Accurately ripped
06 [a024ea41|cbc7ee1c] (0+1/1) Accurately ripped
07 [fbb3fa54|0eafc39c] (0+1/1) Accurately ripped
08 [04cb159c|db76475c] (0+1/1) Accurately ripped
09 [28c26419|496679a6] (0+1/1) Accurately ripped
10 [272310d3|f4cb1d2e] (0+1/1) Accurately ripped
Track Peak [ CRC32 ] [W/O NULL] [ LOG ]
-- 90,2 [767572C5] [FDE9F12E]
01 90,2 [9BD483FF] [1E9EADFB] CRC32
02 79,8 [91AD8C99] [797111FB] CRC32
03 84,0 [BDAD67B9] [261DBCD6] CRC32
04 83,4 [44CC9F09] [2D09485B] CRC32
05 81,1 [D1116130] [CE1C7849] CRC32
06 75,5 [467E7F1E] [A416000A] CRC32
07 89,8 [C4198B4F] [4403B638] CRC32
08 83,6 [37CFC3AB] [91CCCAE0] CRC32
09 84,8 [F7B56C3D] [FE1CD685] CRC32
10 83,6 [62E187BC] [DC55E95A] CRC32
 
Review by Mark Corroto
ESP Disk's 50th anniversary reissue series continues to unearth valuable documents from the history of cutting edge music. Back in the 1960s, when jazz was becoming marginalized as popular music and disenfranchised by the rise of rock-and-roll, ESP chose to eliminate musical classifications that pigeonholed creative music. The label released music by Albert Ayler and Gato Barbieri at the same time it was producing The Fugs and Pearls Before Swine.
This re-release of pianist Ran Blake's Plays Solo Piano is a, admirable illustration of not only ESP's vision, but the dynamic nature of jazz. Recorded in 1965, when jazz was exploding in multiple directions and dividing into various camps, Plays Solo Piano is an excellent example how an artist can assimilate multiple musical traditions and integrate them into a very personal vision.
Blake, like the more famous Thelonious Monk, was a champion of the avant-garde who wasn't afraid to incorporate Gospel, Tin Pan Alley stride, and blues. Blake extended that gambit, drawing from classical music and film-noire. Like the abstract paintings of Pollock or de Kooning whose origins were in representational line drawings, Blake's avant- garde music invites you to consider his lineage.
Plays Solo Piano is a nearly lost treasure, long coveted by vinyl collectors. Like a lost-now-found masterpiece it has defects on its surface. The minor distortions of the remastered copy though somehow add a mystique to this found gem. Blake presents four originals, some reconfigurations of jazz masterpieces, and his unique take on traditional song.
Like Monk, he can recite (maybe re-recite) a piece like "Sleepy Time Gal" or "There'll Be Some Changes Made," making them both bygone music and very modern hip pieces. His take on Ornette Coleman's "Lonely Woman," a classic composition now but only an infant then, draws out the essence of this forlorn piece with an economy of notes and elegant touch. Blake's ability to evoke the true spirit of a tune was fully developed back in 1965. "Good Morning Heartache" roots out the blues and "On Green Dolphin Street" draws an abstract map of the modern piano. His piece "Birmingham U.S.A.," like John Coltrane's "Alabama" was written in response to the 16th Street Baptist Church bombing in 1963. Where Coltrane's music was an elegy, Blake's is a tirade pounded out on his keyboard.
По всем вопросам пишите личное сообщение пользователю M0p94ok.
04:21
168
Нет комментариев. Ваш будет первым!