Вы используете незарегистрированную версию компонента "Вкладки"!

Поиск

(free jazz) [cd] Paul Flaherty, Randall Colbourne, Froc, Richard Downs - Prana (2001), FLAC (tracks+.cue), lossless

(free jazz) [cd] Paul Flaherty, Randall Colbourne, Froc, Richard Downs - Prana (2001), FLAC (tracks+.cue), lossless
Треклист:
(free jazz) [cd] Paul Flaherty, Randall Colbourne, Froc, Richard Downs - Prana (2001), FLAC (tracks+.cue), lossless


Paul Flaherty, Randall Colbourne, Froc, Richard Downs - Prana (2001)

Жанр: free jazz
Год выпуска: 2001
Издатель (лейбл):Zaabway 2007
Формат: FLAC (tracks+.cue)
Битрейт аудио: lossless
Продолжительность 51`28
Источник: what.cd

tracks

1 Passing Through Silence. 16:42
2 Across A Great Distance. 7:20
3 Decending Into Matter. 7:13
4 Unfolding From Within. 14:46
5 Everything Is Forgiven. 5:26


 
.log
Exact Audio Copy V1.0 beta 3 from 29. August 2011
EAC extraction logfile from 6. June 2015, 22:23
Paul Flaherty / Randall Colbourne / Froc / Richard Downs / Prana
Used drive : HL-DT-STDVDRAM SP60NB50 Adapter: 0 ID: 0
Read mode : Secure
Utilize accurate stream : Yes
Defeat audio cache : Yes
Make use of C2 pointers : No
Read offset correction : 6
Overread into Lead-In and Lead-Out : No
Fill up missing offset samples with silence : Yes
Delete leading and trailing silent blocks : No
Null samples used in CRC calculations : Yes
Used interface : Native Win32 interface for Win NT & 2000
Gap handling : Appended to previous track
Used output format : User Defined Encoder
Selected bitrate : 1024 kBit/s
Quality : High
Add ID3 tag : No
Command line compressor : C:\Program Files (x86)\FLAC\flac.exe
Additional command line options : -8 -V -T "ARTIST=%artist%" -T "TITLE=%title%" -T "ALBUM=%albumtitle%" -T "DATE=%year%" -T "TRACKNUMBER=%tracknr%" -T "GENRE=%genre%" -T "PERFORMER=%albuminterpret%" -T "COMPOSER=%composer%" %haslyrics%--tag-from-file=LYRICS="%lyricsfile%"%haslyrics% -T "ALBUMARTIST=%albumartist%" -T "DISCNUMBER=%cdnumber%" -T "TOTALDISCS=%totalcds%" -T "TOTALTRACKS=%numtracks%" -T "COMMENT=%comment%" %source% -o %dest%
TOC of the extracted CD
Track | Start | Length | Start sector | End sector
---------------------------------------------------------
1 | 0:00.00 | 16:42.19 | 0 | 75168
2 | 16:42.19 | 7:20.24 | 75169 | 108192
3 | 24:02.43 | 7:13.23 | 108193 | 140690
4 | 31:15.66 | 14:45.52 | 140691 | 207117
5 | 46:01.43 | 5:26.06 | 207118 | 231573
Track 1
Filename C:\EAC Rips\Paul Flaherty, Randall Colbourne, Froc, Richard Downs - Prana (2001) [FLAC]\01 Passing through silence.wav
Pre-gap length 0:00:02.00
Peak level 100.0 %
Extraction speed 1.4 X
Track quality 100.0 %
Test CRC B6DB54DE
Copy CRC B6DB54DE
Track not present in AccurateRip database
Copy OK
Track 2
Filename C:\EAC Rips\Paul Flaherty, Randall Colbourne, Froc, Richard Downs - Prana (2001) [FLAC]\02 Across a great distance.wav
Pre-gap length 0:00:03.60
Peak level 100.0 %
Extraction speed 1.7 X
Track quality 100.0 %
Test CRC 1CECB16D
Copy CRC 1CECB16D
Track not present in AccurateRip database
Copy OK
Track 3
Filename C:\EAC Rips\Paul Flaherty, Randall Colbourne, Froc, Richard Downs - Prana (2001) [FLAC]\03 Decending into matter.wav
Pre-gap length 0:00:04.60
Peak level 100.0 %
Extraction speed 1.9 X
Track quality 100.0 %
Test CRC 19330E9F
Copy CRC 19330E9F
Track not present in AccurateRip database
Copy OK
Track 4
Filename C:\EAC Rips\Paul Flaherty, Randall Colbourne, Froc, Richard Downs - Prana (2001) [FLAC]\04 Unfolding from within.wav
Pre-gap length 0:00:04.60
Peak level 92.2 %
Extraction speed 2.2 X
Track quality 100.0 %
Test CRC DD471FFB
Copy CRC DD471FFB
Track not present in AccurateRip database
Copy OK
Track 5
Filename C:\EAC Rips\Paul Flaherty, Randall Colbourne, Froc, Richard Downs - Prana (2001) [FLAC]\05 Everything is forgiven.wav
Pre-gap length 0:00:04.60
Peak level 100.0 %
Extraction speed 2.2 X
Track quality 100.0 %
Test CRC FE492E4D
Copy CRC FE492E4D
Track not present in AccurateRip database
Copy OK
None of the tracks are present in the AccurateRip database
No errors occurred
End of status report
---- CUETools DB Plugin V2.1.3
[CTDB TOCID: GuKKj9qKGsJpqQ8oCUhdBJaGwL8-] disk not present in database, Submit result: database access error: The request was aborted: The request was canceled.
==== Log checksum 9F12AA5BC17A415EEA185F21027F4699B5655C655B0DC1799C79DBBD98D03233 ====
 
.cue
REM GENRE Jazz
REM DATE 2001
REM DISCID 3D0C0F05
REM COMMENT "ExactAudioCopy v1.0b3"
PERFORMER "Paul Flaherty / Randall Colbourne / Froc / Richard Downs"
TITLE "Prana"
FILE "01 Passing through silence.wav" WAVE
TRACK 01 AUDIO
TITLE "Passing through silence"
PERFORMER "Paul Flaherty / Randall Colbourne / Froc / Richard Downs"
INDEX 01 00:00:00
TRACK 02 AUDIO
TITLE "Across a great distance"
PERFORMER "Paul Flaherty / Randall Colbourne / Froc / Richard Downs"
INDEX 00 16:38:49
FILE "02 Across a great distance.wav" WAVE
INDEX 01 00:00:00
TRACK 03 AUDIO
TITLE "Decending into matter"
PERFORMER "Paul Flaherty / Randall Colbourne / Froc / Richard Downs"
INDEX 00 07:15:54
FILE "03 Decending into matter.wav" WAVE
INDEX 01 00:00:00
TRACK 04 AUDIO
TITLE "Unfolding from within"
PERFORMER "Paul Flaherty / Randall Colbourne / Froc / Richard Downs"
INDEX 00 07:08:53
FILE "04 Unfolding from within.wav" WAVE
INDEX 01 00:00:00
TRACK 05 AUDIO
TITLE "Everything is forgiven"
PERFORMER "Paul Flaherty / Randall Colbourne / Froc / Richard Downs"
INDEX 00 14:41:07
FILE "05 Everything is forgiven.wav" WAVE
INDEX 01 00:00:00

http://www.discogs.com/Paul-Flaherty-Randall-Colbourne-Froc-Richard-Downs-Prana/release/1193423
другие релизы
По всем вопросам пишите личное сообщение пользователю M0p94ok.
14:12
186
Нет комментариев. Ваш будет первым!