Вы используете незарегистрированную версию компонента "Вкладки"!

Поиск

(Free Jazz) [CD] Cecil Taylor - The World Of Cecil Taylor (Archie Shepp, Buell Neidlinger, Dennis Charles) - 2012, FLAC (tracks+.cue), lossless

Треклист:
Cecil Taylor / The World Of Cecil Taylor
Жанр: Free Jazz
Носитель: CD
Год издания: 2012
Издатель (лейбл): American Jazz Classics
Номер по каталогу: 99045
Страна исполнителя (группы): Europe
Аудиокодек: FLAC (*.flac)
Тип рипа: tracks+.cue
Битрейт аудио: lossless
Продолжительность: 72:22
Источник (релизер): cd
Наличие сканов в содержимом раздачи: нет
Треклист:
01. Air (take 28) 8:45
02. This Nearly Was Mine 10:55
03. Port Of Call (take 2) 4:24
04. E.B. (take 2) 9:58
05. Lazy Afternoon 14:53
06. Number One 8:37
07. Air (take 29) 10:21
08. Port Of Call (take 3) 4:25
 
Лог создания рипа
Exact Audio Copy V1.0 beta 3 from 29. August 2011
EAC extraction logfile from 27. December 2014, 9:46
Cecil Taylor / The World Of Cecil Taylor
Used drive : ASUS DRW-24F1ST a Adapter: 0 ID: 0
Read mode : Secure
Utilize accurate stream : Yes
Defeat audio cache : Yes
Make use of C2 pointers : No
Read offset correction : 6
Overread into Lead-In and Lead-Out : No
Fill up missing offset samples with silence : Yes
Delete leading and trailing silent blocks : No
Null samples used in CRC calculations : Yes
Used interface : Native Win32 interface for Win NT & 2000
Gap handling : Appended to previous track
Used output format : User Defined Encoder
Selected bitrate : 320 kBit/s
Quality : High
Add ID3 tag : No
Command line compressor : D:\Programs\Exact Audio Copy\Flac\flac.exe
Additional command line options : -V -8 -T "Genre=%genre%" -T "Artist=%artist%" -T "Title=%title%" -T "Album=%albumtitle%" -T "Date=%year%" -T "Tracknumber=%tracknr%" -T "Comment=%comment%" %source%
TOC of the extracted CD
Track | Start | Length | Start sector | End sector
---------------------------------------------------------
1 | 0:00.00 | 8:45.20 | 0 | 39394
2 | 8:45.20 | 10:55.39 | 39395 | 88558
3 | 19:40.59 | 4:24.71 | 88559 | 108429
4 | 24:05.55 | 9:58.32 | 108430 | 153311
5 | 34:04.12 | 14:53.42 | 153312 | 220328
6 | 48:57.54 | 8:37.59 | 220329 | 259162
7 | 57:35.38 | 10:21.04 | 259163 | 305741
8 | 67:56.42 | 4:25.41 | 305742 | 325657
Track 1
Filename D:\EAC\01 Air (take 28).wav
Pre-gap length 0:00:02.00
Peak level 87.6 %
Extraction speed 2.1 X
Track quality 100.0 %
Test CRC E380276E
Copy CRC E380276E
Copy OK
Track 2
Filename D:\EAC\02 This Nearly Was Mine.wav
Peak level 48.1 %
Extraction speed 2.6 X
Track quality 100.0 %
Test CRC 4A85150E
Copy CRC 4A85150E
Copy OK
Track 3
Filename D:\EAC\03 Port Of Call (take 2).wav
Peak level 48.5 %
Extraction speed 2.4 X
Track quality 99.9 %
Test CRC BAB0EC9F
Copy CRC BAB0EC9F
Copy OK
Track 4
Filename D:\EAC\04 E.B. (take 2).wav
Peak level 74.0 %
Extraction speed 3.1 X
Track quality 100.0 %
Test CRC C1160A57
Copy CRC C1160A57
Copy OK
Track 5
Filename D:\EAC\05 Lazy Afternoon.wav
Peak level 57.8 %
Extraction speed 3.6 X
Track quality 100.0 %
Test CRC 191503EC
Copy CRC 191503EC
Copy OK
Track 6
Filename D:\EAC\06 Number One.wav
Peak level 82.4 %
Extraction speed 3.8 X
Track quality 100.0 %
Test CRC 27F4DC0D
Copy CRC 27F4DC0D
Copy OK
Track 7
Filename D:\EAC\07 Air (take 29).wav
Peak level 86.8 %
Extraction speed 4.1 X
Track quality 100.0 %
Test CRC 582DD083
Copy CRC 582DD083
Copy OK
Track 8
Filename D:\EAC\08 Port Of Call (take 3).wav
Peak level 86.3 %
Extraction speed 3.9 X
Track quality 100.0 %
Test CRC 9A3B85C3
Copy CRC 9A3B85C3
Copy OK
No errors occurred
End of status report
==== Log checksum 6447A6B7F5211573ACE8F9E51AFDF1486333135F1CE5E7F6806E1523E9026C1F ====
 
Содержание индексной карты (.CUE)
REM GENRE Jazz
REM DATE 2012
REM DISCID 7510F608
REM COMMENT "ExactAudioCopy v1.0b3"
PERFORMER "Cecil Taylor"
TITLE "The World Of Cecil Taylor"
FILE "01 Air (take 28).wav" WAVE
TRACK 01 AUDIO
TITLE "Air (take 28)"
PERFORMER "Cecil Taylor"
FLAGS PRE DCP
INDEX 01 00:00:00
FILE "02 This Nearly Was Mine.wav" WAVE
TRACK 02 AUDIO
TITLE "This Nearly Was Mine"
PERFORMER "Cecil Taylor"
FLAGS PRE
INDEX 01 00:00:00
FILE "03 Port Of Call (take 2).wav" WAVE
TRACK 03 AUDIO
TITLE "Port Of Call (take 2)"
PERFORMER "Cecil Taylor"
FLAGS PRE DCP
INDEX 01 00:00:00
FILE "04 E.B. (take 2).wav" WAVE
TRACK 04 AUDIO
TITLE "E.B. (take 2)"
PERFORMER "Cecil Taylor"
FLAGS PRE DCP
INDEX 01 00:00:00
FILE "05 Lazy Afternoon.wav" WAVE
TRACK 05 AUDIO
TITLE "Lazy Afternoon"
PERFORMER "Cecil Taylor"
FLAGS PRE DCP
INDEX 01 00:00:00
FILE "06 Number One.wav" WAVE
TRACK 06 AUDIO
TITLE "Number One"
PERFORMER "Cecil Taylor"
INDEX 01 00:00:00
FILE "07 Air (take 29).wav" WAVE
TRACK 07 AUDIO
TITLE "Air (take 29)"
PERFORMER "Cecil Taylor"
INDEX 01 00:00:00
FILE "08 Port Of Call (take 3).wav" WAVE
TRACK 08 AUDIO
TITLE "Port Of Call (take 3)"
PERFORMER "Cecil Taylor"
INDEX 01 00:00:00
Доп. информация: Recorded at Nola Penthouse Sound Studios, New York City, October 12th and 13th 1960.
 
Об альбоме (сборнике)
From the opening patterns of Denis Charles' drums on the title cut, the listener knows he/she is in for something special. One can only imagine what the reaction of the average jazz fan was in 1960 when this session was recorded. This is a wonderful document from early in Taylor's career, when he was midway between modernist approaches to standard material and his own radical experiments that would come to full fruition a few years hence. The quartet, rounded out by the youthful Archie Shepp (playing only on "Air" and "Lazy Afternoon") and bassist Buell Neidlinger, is already quite comfortable at pushing the boundaries of the period, giving an almost cursory reading of the themes before leaping into improvisation. The standard "This Nearly Was Mine" is explored gorgeously and with strong romanticism by Taylor, giving perhaps an indication of the source of the brief, blissful encores he would offer up to end his solo concerts in coming decades. "Port of Call" and "Eb" are both utter masterpieces showing Taylor already maintaining an unheard of mastery of the piano, musical ideas darting like sparks from his fingertips. What's extra amazing is how deeply entrenched the blues feel and pulse are in this music, already bound for the further reaches of abstraction. They never left Taylor, although many listeners have difficulty discerning them. This session, which has been released under numerous guises, is an especially fine introduction to his work, keeping enough of a foot in "traditional" jazz forms to offer one purchase while dangling breathtaking visions of the possible within one's reach. A classic recording that belongs in anyone's collection.
 
Состав
Bass – Buell Neidlinger
Drums – Dennis Charles
Piano – Cecil Taylor
Tenor Saxophone – Archie Shepp (tracks: 1, 5)
Sunny Murray (drums) replaces Dennis Charles on (6) only
По всем вопросам пишите личное сообщение пользователю M0p94ok.
07:42
295
Нет комментариев. Ваш будет первым!