Вы используете незарегистрированную версию компонента "Вкладки"!

Поиск

(Free Jazz) [CD] Akira Sakata & Chikamorachi (Darin Gray, Chris Corsano) - Friendly Pants - 2009, FLAC (image+.cue), lossless

(Free Jazz) [CD] Akira Sakata & Chikamorachi (Darin Gray, Chris Corsano) - Friendly Pants - 2009, FLAC (image+.cue), lossless
Треклист:
Akira Sakata & Chikamorachi / Friendly Pants
Жанр: Free Jazz
Носитель: CD
Страна-производитель диска: US
Год издания: 2009
Издатель (лейбл): Family Vineyard
Номер по каталогу: FV66
Аудиокодек: FLAC (*.flac)
Тип рипа: image+.cue
Битрейт аудио: lossless
Продолжительность: 57:27
Источник (релизер): CD
Наличие сканов в содержимом раздачи: нет
Треклист:
1 Friendly Pants 11:30
2 Un 12:02
3 In Case, Let's Go To Galaxy 8:38
4 That Day Of Rain 9:12
5 With Saigyo Path 5:21
6 Yo! Yo! Dime 10:42
 
Лог создания рипа
Exact Audio Copy V1.0 beta 2 from 29. April 2011
EAC extraction logfile from 23. January 2014, 9:20
Akira Sakata & Chikaramochi / Friendly Pants
Used drive : Optiarc DVD RW AD-7170A Adapter: 0 ID: 0
Read mode : Secure
Utilize accurate stream : Yes
Defeat audio cache : Yes
Make use of C2 pointers : No
Read offset correction : 48
Overread into Lead-In and Lead-Out : No
Fill up missing offset samples with silence : Yes
Delete leading and trailing silent blocks : No
Null samples used in CRC calculations : Yes
Used interface : Native Win32 interface for Win NT & 2000
Used output format : User Defined Encoder
Selected bitrate : 320 kBit/s
Quality : High
Add ID3 tag : No
Command line compressor : C:\Program Files\Exact Audio Copy\Flac\flac.exe
Additional command line options : -V -8 -T "Date=%year%" -T "Genre=%genre%" %source%
TOC of the extracted CD
Track | Start | Length | Start sector | End sector
---------------------------------------------------------
1 | 0:00.00 | 11:30.17 | 0 | 51766
2 | 11:30.17 | 12:02.47 | 51767 | 105963
3 | 23:32.64 | 8:38.19 | 105964 | 144832
4 | 32:11.08 | 9:12.47 | 144833 | 186279
5 | 41:23.55 | 5:21.31 | 186280 | 210385
6 | 46:45.11 | 10:42.51 | 210386 | 258586
Range status and errors
Selected range
Filename K:\ЕАС\Akira Sakata & Chikaramochi - Friendly Pants.wav
Peak level 100.0 %
Extraction speed 1.9 X
Range quality 99.9 %
Test CRC 3598F9DE
Copy CRC 3598F9DE
Copy OK
No errors occurred
AccurateRip summary
Track 1 accurately ripped (confidence 1) [BEC35215] (AR v2)
Track 2 accurately ripped (confidence 1) [884553A4] (AR v2)
Track 3 accurately ripped (confidence 1) [C53960DA] (AR v2)
Track 4 accurately ripped (confidence 1) [9AEA960E] (AR v2)
Track 5 accurately ripped (confidence 1) [05E6A0C4] (AR v2)
Track 6 accurately ripped (confidence 1) [6A51BE5C] (AR v2)
All tracks accurately ripped
End of status report
==== Log checksum F3606EBB824E93280EB0E144174E20056DC55E7D5237B740199233FBDFDFC4B4 ====
 
Содержание индексной карты (.CUE)
REM GENRE Jazz
REM DATE 2009
REM DISCID 510D7706
REM COMMENT "ExactAudioCopy v1.0b2"
CATALOG 4988001977384
PERFORMER "Akira Sakata & Chikaramochi"
TITLE "Friendly Pants"
FILE "Akira Sakata & Chikaramochi - Friendly Pants.flac" WAVE
TRACK 01 AUDIO
TITLE "Friendly Pants"
PERFORMER "Akira Sakata & Chikaramochi"
ISRC JPCO00709900
INDEX 01 00:00:00
TRACK 02 AUDIO
TITLE "Un"
PERFORMER "Akira Sakata & Chikaramochi"
ISRC JPCO00709910
INDEX 00 11:29:00
INDEX 01 11:30:17
TRACK 03 AUDIO
TITLE "In Case Let's Go to Galaxy"
PERFORMER "Akira Sakata & Chikaramochi"
ISRC JPCO00709920
INDEX 00 23:30:42
INDEX 01 23:32:64
TRACK 04 AUDIO
TITLE "That Day of Rain"
PERFORMER "Akira Sakata & Chikaramochi"
ISRC JPCO00709930
INDEX 00 32:09:68
INDEX 01 32:11:08
TRACK 05 AUDIO
TITLE "With Saigyo Path"
PERFORMER "Akira Sakata & Chikaramochi"
ISRC JPCO00709940
INDEX 00 41:21:34
INDEX 01 41:23:55
TRACK 06 AUDIO
TITLE "Yo! Yo! Dime"
PERFORMER "Akira Sakata & Chikaramochi"
ISRC JPCO00709950
INDEX 00 46:43:74
INDEX 01 46:45:11
Доп. информация: Recorded at Magnet Studio, Tokyo, August 9, 2006.
 
Об альбоме (сборнике)
Friendly Pants is a passionate studio session between American free jazz rhythm section Chikamorachi (drummer Chris Corsano and bassist Darin Gray) and Akira Sakata, one of Japan's major free sax players. The recording took place in Tokyo, in August 2006. Sakata's range on the alto extends from tender swirls to furious screams, without resorting to skronks. The Americans are in fine form, overdriving the music as usual, Corsano's speed drumming remaining one of the marvels of the modern music world. Each foreigner gets to do a duet with Sakata, and these are the two shortest tracks. The rest of the album consists of four nine-minute-plus trios. Each piece is given its own personality: "Friendly Pants" is sweet and soulful, "Un" is cheerful-turning-to-bitter, "That Day of Rain" starts mournful, then gets excited. Particularly interesting is the Sakata/Corsano duet "In Case, Let's Go to Galaxy," if only because it allows for comparison with Corsano's long-running duo with another powerful saxman, Paul Flaherty (it comes off as less pathos-driven but just as galvanizing). Friendly Pants is a very satisfying record, intense but well paced, with Gray's low presence in the mix being the only sour note. And there is no denying the chemistry between the players. It makes a fine calling card for Sakata, who is little known on the North American free improvisation circuit.
 
Состав
Alto Saxophone – Akira Sakata
Double Bass – Darin Gray
Drums – Chris Corsano
Producer – Jim O'Rourke
Any questions -> support@pro-jazz.com. По всем вопросам пишите -> support@pro-jazz.com
22:48
152
Нет комментариев. Ваш будет первым!