Вы используете незарегистрированную версию компонента "Вкладки"!

Поиск

(Free Jazz, Avant-Garde) Joe McPhee / Hamid Drake - Emancipation Proclamation : A Real Statement of Freedom - 2000, FLAC (tracks+.cue) lossless

(Free Jazz, Avant-Garde) Joe McPhee / Hamid Drake - Emancipation Proclamation : A Real Statement of Freedom - 2000, FLAC (tracks+.cue) lossless
Треклист:
Joe McPhee / Hamid Drake - Emancipation Proclamation : A Real Statement of Freedom
Жанр: Free Jazz, Avant-Garde
Страна-производитель диска: USA
Год издания диска: 2000
Издатель (лейбл): OkkaDisc
Номер по каталогу: OD12036
Аудио кодек: FLAC (*.flac)
Тип рипа: tracks+.cue
Битрейт аудио: lossless
Продолжительность: 00:57:37
Источник (релизер): GatoMedio
Наличие сканов в содержимом раздачи: да
Треклист:
1. Cries and Whispers (18:37)
2. Mother Africa (For Miriam Makeba) (17:10)
3. God Bless the Child (4:18)
4. Emancipation Proclamation (14:30)
5. Hate Crime Cries (3:14)
Personnel:
Joe McPhee — pocket trumpet, tenor saxaphone
Hamid Drake — drums, percussion
Recorded at The Empty Bottle, Chicago, June, 25 1999
recorded & mastered by: Malachi Ritscher/Savage Sound Syndicate
produced by: McPhee/Bruno/Johnson
 
Лог создания рипа (EAC Log)
Exact Audio Copy V0.99 prebeta 5 from 4. May 2009
EAC extraction logfile from 20. February 2011, 22:21
Joe McPhee & Hamid Drake / Emancipation Proclamation - A Real Statement of Freedom
Used drive : HL-DT-STDVD-RAM GSA-H55N Adapter: 0 ID: 0
Read mode : Secure
Utilize accurate stream : Yes
Defeat audio cache : Yes
Make use of C2 pointers : No
Read offset correction : 102
Overread into Lead-In and Lead-Out : No
Fill up missing offset samples with silence : Yes
Delete leading and trailing silent blocks : No
Null samples used in CRC calculations : Yes
Used interface : Native Win32 interface for Win NT & 2000
Gap handling : Appended to previous track
Used output format : Internal WAV Routines
Sample format : 44.100 Hz; 16 Bit; Stereo
TOC of the extracted CD
Track | Start | Length | Start sector | End sector
---------------------------------------------------------
1 | 0:00.00 | 18:34.28 | 0 | 83577
2 | 18:34.28 | 17:07.47 | 83578 | 160649
3 | 35:42.00 | 4:14.30 | 160650 | 179729
4 | 39:56.30 | 14:27.38 | 179730 | 244792
5 | 54:23.68 | 3:13.36 | 244793 | 259303
Track 1
Filename D:\_Music myRips\Joe McPhee - Emancipation Proclamation\Joe McPhee - Emancipation Proclamation (wav)\01 - Cries and Whispers.wav
Pre-gap length 0:00:02.00
Peak level 87.6 %
Track quality 100.0 %
Test CRC 5E1EBC99
Copy CRC 5E1EBC99
Track not present in AccurateRip database
Copy OK
Track 2
Filename D:\_Music myRips\Joe McPhee - Emancipation Proclamation\Joe McPhee - Emancipation Proclamation (wav)\02 - Mother Africa (for Miriam Makeba).wav
Peak level 81.3 %
Track quality 100.0 %
Test CRC 6E4D7BE0
Copy CRC 6E4D7BE0
Track not present in AccurateRip database
Copy OK
Track 3
Filename D:\_Music myRips\Joe McPhee - Emancipation Proclamation\Joe McPhee - Emancipation Proclamation (wav)\03 - God Bless the Child.wav
Peak level 27.0 %
Track quality 100.0 %
Test CRC B377DA8D
Copy CRC B377DA8D
Track not present in AccurateRip database
Copy OK
Track 4
Filename D:\_Music myRips\Joe McPhee - Emancipation Proclamation\Joe McPhee - Emancipation Proclamation (wav)\04 - Emancipation Proclamation.wav
Peak level 99.3 %
Track quality 100.0 %
Test CRC 8C51A117
Copy CRC 8C51A117
Track not present in AccurateRip database
Copy OK
Track 5
Filename D:\_Music myRips\Joe McPhee - Emancipation Proclamation\Joe McPhee - Emancipation Proclamation (wav)\05 - Hate Crime Cries.wav
Peak level 25.7 %
Track quality 100.0 %
Test CRC EAAED873
Copy CRC EAAED873
Track not present in AccurateRip database
Copy OK
None of the tracks are present in the AccurateRip database
No errors occurred
End of status report
 
Содержание индексной карты (.CUE)
REM GENRE jazz
REM DATE 2000
REM DISCID 3C0D8105
REM COMMENT "ExactAudioCopy v0.99pb5"
PERFORMER "Joe McPhee & Hamid Drake"
TITLE "Emancipation Proclamation - A Real Statement of Freedom"
FILE "01 - Cries and Whispers.wav" WAVE
TRACK 01 AUDIO
TITLE "Cries and Whispers"
PERFORMER "Joe McPhee & Hamid Drake"
INDEX 01 00:00:00
FILE "02 - Mother Africa (for Miriam Makeba).wav" WAVE
TRACK 02 AUDIO
TITLE "Mother Africa (for Miriam Makeba)"
PERFORMER "Joe McPhee & Hamid Drake"
INDEX 01 00:00:00
FILE "03 - God Bless the Child.wav" WAVE
TRACK 03 AUDIO
TITLE "God Bless the Child"
PERFORMER "Joe McPhee & Hamid Drake"
INDEX 01 00:00:00
FILE "04 - Emancipation Proclamation.wav" WAVE
TRACK 04 AUDIO
TITLE "Emancipation Proclamation"
PERFORMER "Joe McPhee & Hamid Drake"
INDEX 01 00:00:00
FILE "05 - Hate Crime Cries.wav" WAVE
TRACK 05 AUDIO
TITLE "Hate Crime Cries"
PERFORMER "Joe McPhee & Hamid Drake"
INDEX 01 00:00:00
 
All Music Guide (AMG)
Recorded at the dawn of the new millennium, Emancipation Proclamation: A Real Statement of Freedom is one of those avant jazz duet dates that puts everything else in perspective by revealing at its heart that anything is possible when conditions are right. There are five tracks here, three of them over ten minutes, and the opener, "Cries and Whispers," is nearly 20; the entire set was recorded live. Drake is not only the anchor here, but the inspiration, with his percussive encyclopedias of the history of African music rolled into brilliant, small statements that call McPhee to answer them from the new world on his saxophone and later on his trumpet. "Cries and Whispers" calls out of emptiness for context and creates willfully from a cultural center. And the manner in which it is done is auspicious: Intensity is not relied on to cover anything; the pace is gradual; ideas appear and are considered, articulated, and laid down as a platform for others to rise up and take their place. All the while, the various voices in this articulation debate one another as well as converse; they don't take anything for granted in the ethereal center of space that is created by the absence of other instruments. "Mother Africa (For Miriam Makeba)" is another example where Drake reflectively places a small, shimmering textural platform on the playing ground to be added to. McPhee, who is a consummate master at creating something from nothing, imbues his entire approach to Drake's offering with emotion rather than academic linguistics. As the piece builds, harmonic architectures of density and space are interwoven before being separated again as new and different structures where tonal coloration and dynamic force are merely elemental threads of creation rather than ends in themselves. This was a brilliant gig, and just how brilliant is evidenced by the energy and grace of this recording. ~Thom Jurek, All Music Guide
По всем вопросам пишите личное сообщение пользователю M0p94ok.
11:27
191
Нет комментариев. Ваш будет первым!