Вы используете незарегистрированную версию компонента "Вкладки"!

Поиск

(Free Jazz / Avant-Garde) Don Cherry - Hear & Now - 1977 [2007], FLAC (tracks+.cue), lossless

Треклист:
Don Cherry - Hear & Now
Жанр: Free Jazz / Avant-Garde
Год выпуска : 1977
Год выпуска диска: 2007
Лейбл: Wounded Bird Records
Аудио кодек: FLAC
Тип рипа: tracks+.cue
Битрейт аудио: lossless
Продолжительность: 00:45:04
Наличие сканов в содержимом раздачи: Да
Рип: hotemetoot - Waffles Fm


01. Mahakali (9:50)
02. Universal Mother (6:46)
03. Karmapa Chenno (7:14)
04. California (2:52)
05. Buddha's Blues (3:41)
06. Eagle Eye (0:56)
07. Surrender Rose (3:33)
08. Journey Of Milarepa/Shanti/The Ending Movement-Liberation (10:13)

 
EAC
Exact Audio Copy V0.99 prebeta 3 from 28. July 2007
EAC extraction logfile from 13. June 2008, 16:17
Don Cherry / Hear & Now
Used drive : SAMSUNG CD-R/RW SW-252F Adapter: 1 ID: 0
Read mode : Secure
Utilize accurate stream : Yes
Defeat audio cache : Yes
Make use of C2 pointers : No
Read offset correction : 145
Overread into Lead-In and Lead-Out : No
Fill up missing offset samples with silence : Yes
Delete leading and trailing silent blocks : No
Null samples used in CRC calculations : Yes
Used interface : Native Win32 interface for Win NT & 2000
Gap handling : Appended to previous track
Used output format : Internal WAV Routines
Sample format : 44.100 Hz; 16 Bit; Stereo
TOC of the extracted CD
Track | Start | Length | Start sector | End sector
---------------------------------------------------------
1 | 0:00.00 | 9:50.05 | 0 | 44254
2 | 9:50.05 | 6:46.01 | 44255 | 74705
3 | 16:36.06 | 7:14.25 | 74706 | 107280
4 | 23:50.31 | 2:51.44 | 107281 | 120149
5 | 26:42.00 | 3:40.72 | 120150 | 136721
6 | 30:22.72 | 0:55.52 | 136722 | 140898
7 | 31:18.49 | 3:32.52 | 140899 | 156850
8 | 34:51.26 | 10:12.64 | 156851 | 202814
Track 1
Filename C:\Documents and Settings\Administrator\My Documents\My Music\Don Cherry - 1977 - Hear & Now\01 - Mahakali.wav
Pre-gap length 0:00:02.00
Peak level 96.4 %
Track quality 99.9 %
Test CRC 16452389
Copy CRC 16452389
Track not present in AccurateRip database
Copy OK
Track 2
Filename C:\Documents and Settings\Administrator\My Documents\My Music\Don Cherry - 1977 - Hear & Now\02 - Universal mother.wav
Peak level 96.4 %
Track quality 100.0 %
Test CRC F7BA7BEA
Copy CRC F7BA7BEA
Track not present in AccurateRip database
Copy OK
Track 3
Filename C:\Documents and Settings\Administrator\My Documents\My Music\Don Cherry - 1977 - Hear & Now\03 - Karmapa Chenno.wav
Peak level 96.5 %
Track quality 99.9 %
Test CRC 343246C1
Copy CRC 343246C1
Track not present in AccurateRip database
Copy OK
Track 4
Filename C:\Documents and Settings\Administrator\My Documents\My Music\Don Cherry - 1977 - Hear & Now\04 - California.wav
Peak level 96.4 %
Track quality 100.0 %
Test CRC 3F9DF6B9
Copy CRC 3F9DF6B9
Track not present in AccurateRip database
Copy OK
Track 5
Filename C:\Documents and Settings\Administrator\My Documents\My Music\Don Cherry - 1977 - Hear & Now\05 - Buddha's Blues.wav
Peak level 96.4 %
Track quality 100.0 %
Test CRC 6F9B858F
Copy CRC 6F9B858F
Track not present in AccurateRip database
Copy OK
Track 6
Filename C:\Documents and Settings\Administrator\My Documents\My Music\Don Cherry - 1977 - Hear & Now\06 - Eagle eye.wav
Peak level 93.0 %
Track quality 100.0 %
Test CRC FEF5E0DF
Copy CRC FEF5E0DF
Track not present in AccurateRip database
Copy OK
Track 7
Filename C:\Documents and Settings\Administrator\My Documents\My Music\Don Cherry - 1977 - Hear & Now\07 - Surrender rose.wav
Peak level 96.3 %
Track quality 100.0 %
Test CRC 2C548DD6
Copy CRC 2C548DD6
Track not present in AccurateRip database
Copy OK
Track 8
Filename C:\Documents and Settings\Administrator\My Documents\My Music\Don Cherry - 1977 - Hear & Now\08 - Journey of Milarepa - Shanti - The ending movement-liberation.wav
Peak level 96.4 %
Track quality 100.0 %
Test CRC A732DE40
Copy CRC A732DE40
Track not present in AccurateRip database
Copy OK
None of the tracks are present in the AccurateRip database
No errors occurred
End of status report
 
CUE
REM GENRE Free Jazz
REM DATE 1977
REM DISCID 6F0A9008
REM COMMENT "ExactAudioCopy v0.99pb3"
PERFORMER "Don Cherry"
TITLE "Hear & Now"
FILE "01 - Mahakali.wav" WAVE
TRACK 01 AUDIO
TITLE "Mahakali"
PERFORMER "Don Cherry"
INDEX 01 00:00:00
FILE "02 - Universal mother.wav" WAVE
TRACK 02 AUDIO
TITLE "Universal mother"
PERFORMER "Don Cherry"
INDEX 01 00:00:00
FILE "03 - Karmapa Chenno.wav" WAVE
TRACK 03 AUDIO
TITLE "Karmapa Chenno"
PERFORMER "Don Cherry"
INDEX 01 00:00:00
FILE "04 - California.wav" WAVE
TRACK 04 AUDIO
TITLE "California"
PERFORMER "Don Cherry"
INDEX 01 00:00:00
FILE "05 - Buddha's Blues.wav" WAVE
TRACK 05 AUDIO
TITLE "Buddha's Blues"
PERFORMER "Don Cherry"
INDEX 01 00:00:00
FILE "06 - Eagle eye.wav" WAVE
TRACK 06 AUDIO
TITLE "Eagle eye"
PERFORMER "Don Cherry"
INDEX 01 00:00:00
FILE "07 - Surrender rose.wav" WAVE
TRACK 07 AUDIO
TITLE "Surrender rose"
PERFORMER "Don Cherry"
INDEX 01 00:00:00
FILE "08 - Journey of Milarepa - Shanti - The ending movement-liberation.wav" WAVE
TRACK 08 AUDIO
TITLE "Journey of Milarepa - Shanti - The ending movement-liberation"
PERFORMER "Don Cherry"
INDEX 01 00:00:00
 
Audiochecker
Started at: суббота, 22. 01. 2011. - 11:55.26
8 files found
1 -===- C:\Downloads\Music\Джаз\Don Cherry - Hear & Now - 1977\01 - Mahakali.flac
Extracted successfully
Conclusion: This track looks like CDDA with probability 99%
Tempfile successfully deleted.
2 -===- C:\Downloads\Music\Джаз\Don Cherry - Hear & Now - 1977\02 - Universal mother.flac
Extracted successfully
Conclusion: This track looks like CDDA with probability 100%
Tempfile successfully deleted.
3 -===- C:\Downloads\Music\Джаз\Don Cherry - Hear & Now - 1977\03 - Karmapa Chenno.flac
Extracted successfully
Conclusion: This track looks like CDDA with probability 100%
Tempfile successfully deleted.
4 -===- C:\Downloads\Music\Джаз\Don Cherry - Hear & Now - 1977\04 - California.flac
Extracted successfully
Conclusion: This track looks like CDDA with probability 100%
Tempfile successfully deleted.
5 -===- C:\Downloads\Music\Джаз\Don Cherry - Hear & Now - 1977\05 - Buddha's Blues.flac
Extracted successfully
Conclusion: This track looks like CDDA with probability 100%
Tempfile successfully deleted.
6 -===- C:\Downloads\Music\Джаз\Don Cherry - Hear & Now - 1977\06 - Eagle eye.flac
Extracted successfully
Conclusion: This track looks like CDDA with probability 99%
Tempfile successfully deleted.
7 -===- C:\Downloads\Music\Джаз\Don Cherry - Hear & Now - 1977\07 - Surrender rose.flac
Extracted successfully
Conclusion: This track looks like CDDA with probability 99%
Tempfile successfully deleted.
8 -===- C:\Downloads\Music\Джаз\Don Cherry - Hear & Now - 1977\08 - Journey of Milarepa - Shanti - The ending movement-liberation.flac
Extracted successfully
Conclusion: This track looks like CDDA with probability 100%
Tempfile successfully deleted.
Finished at: суббота, 22. 01. 2011. - 12:07.46 (operation time: 0:12.19)
 
Участники

Don Cherry: trumpet, flute, vocal;
Michael Brecker: tenor saxophone (1);
Stan Samole: guitar (1-5, 7, 8);
Ronald Dean Miller: guitar (1, 3);
Cliff Carter: keyboards (1-5, 7, 8);
Narada Michael Walden: keyboards (7), tympani (1);
Colin Walcott: sitar (1);
Lois Colin: harp (2, 7);
Moki: tamboura (1);
Marcus Miller: bass (1, 3);
Neil Jason: bass (2, 4, 5, 7, 8);
Lenny White: drums (1, 3);
Tony Williams: drums (4, 5);
Steve Jordan: drums (7, 8);
Raphael Cruz: percussion;
Sammy Figuero: congas (2-6, 8);
Cheryl Alexander: vocals (2);
Phoenix Volaitis: vocals (7);
Patty Scialfa: vocals (7).
По всем вопросам пишите личное сообщение пользователю M0p94ok.
07:50
191
Нет комментариев. Ваш будет первым!