Вы используете незарегистрированную версию компонента "Вкладки"!

Поиск

(Free Improvisation) Paul Flaherty / C. Spencer Yeh / Greg Kelley - New York Nuts & Boston Beans - 2009, FLAC (tracks+.cue), lossless

(Free Improvisation) Paul Flaherty / C. Spencer Yeh / Greg Kelley - New York Nuts & Boston Beans - 2009, FLAC (tracks+.cue), lossless
Треклист:
Paul Flaherty / C. Spencer Yeh / Greg Kelley - New York Nuts & Boston Beans
Жанр: Free Improvisation
Страна-производитель диска: США
Год издания диска: 2009
Издатель (лейбл): Important Records
Номер по каталогу: imprec195
Страна: США
Аудиокодек: FLAC (*.flac)
Тип рипа: tracks+.cue
Битрейт аудио: lossless
Продолжительность: 49:35
Источник (релизер): вот.сиди (sayswho)
Наличие сканов в содержимом раздачи: нет
Треклист:
1 Untitled 12:25
2 Untitled 12:43
Issue Project Room, Brooklyn, NY, USA - Aug. 31st 2007
3 Untitled 6:12
4 Untitled 7:53
5 Untitled 10:19
Nom D'Artiste, Boston, MA, USA - Sept. 2nd 2007
 
Лог создания рипа
Exact Audio Copy V1.0 beta 3 from 29. August 2011
EAC extraction logfile from 24. December 2011, 9:24
C. Spencer Yeh and Paul Flaherty w/ Greg Kelley / New York Nuts & Boston Beans
Used drive : PLEXTOR CD-R PREMIUM Adapter: 5 ID: 0
Read mode : Secure
Utilize accurate stream : Yes
Defeat audio cache : Yes
Make use of C2 pointers : No
Read offset correction : 30
Overread into Lead-In and Lead-Out : Yes
Fill up missing offset samples with silence : Yes
Delete leading and trailing silent blocks : No
Null samples used in CRC calculations : Yes
Used interface : Installed external ASPI interface
Gap handling : Appended to previous track
Used output format : Internal WAV Routines
Sample format : 44.100 Hz; 16 Bit; Stereo
TOC of the extracted CD
Track | Start | Length | Start sector | End sector
---------------------------------------------------------
1 | 0:00.00 | 12:25.35 | 0 | 55909
2 | 12:25.35 | 12:43.34 | 55910 | 113168
3 | 25:08.69 | 6:12.30 | 113169 | 141098
4 | 31:21.24 | 7:53.28 | 141099 | 176601
5 | 39:14.52 | 10:19.72 | 176602 | 223098
Track 1
Filename C:\rip\C. Spencer Yeh and Paul Flaherty w - Greg Kelley - New York Nuts & Boston Beans (2007)\01 - [untitled].wav
Pre-gap length 0:00:02.00
Peak level 89.1 %
Extraction speed 9.1 X
Track quality 100.0 %
Test CRC 9EAD66EE
Copy CRC 9EAD66EE
Track not present in AccurateRip database
Copy OK
Track 2
Filename C:\rip\C. Spencer Yeh and Paul Flaherty w - Greg Kelley - New York Nuts & Boston Beans (2007)\02 - [untitled].wav
Pre-gap length 0:00:02.45
Peak level 89.1 %
Extraction speed 11.8 X
Track quality 100.0 %
Test CRC 0201EFFD
Copy CRC 0201EFFD
Track not present in AccurateRip database
Copy OK
Track 3
Filename C:\rip\C. Spencer Yeh and Paul Flaherty w - Greg Kelley - New York Nuts & Boston Beans (2007)\03 - [untitled].wav
Pre-gap length 0:00:02.45
Peak level 89.1 %
Extraction speed 13.0 X
Track quality 100.0 %
Test CRC A5709355
Copy CRC A5709355
Track not present in AccurateRip database
Copy OK
Track 4
Filename C:\rip\C. Spencer Yeh and Paul Flaherty w - Greg Kelley - New York Nuts & Boston Beans (2007)\04 - [untitled].wav
Pre-gap length 0:00:02.45
Peak level 89.1 %
Extraction speed 12.5 X
Track quality 100.0 %
Test CRC DDDF4456
Copy CRC DDDF4456
Track not present in AccurateRip database
Copy OK
Track 5
Filename C:\rip\C. Spencer Yeh and Paul Flaherty w - Greg Kelley - New York Nuts & Boston Beans (2007)\05 - [untitled].wav
Pre-gap length 0:00:02.45
Peak level 89.1 %
Extraction speed 8.5 X
Track quality 100.0 %
Test CRC 365E892D
Copy CRC 365E892D
Track not present in AccurateRip database
Copy OK
None of the tracks are present in the AccurateRip database
No errors occurred
End of status report
==== Log checksum E044B387699D6B6C799C057163E3ADACCCA87539829EB387656053B8C4547A21 ====
 
Содержание индексной карты (.CUE)
REM GENRE Noise/Experimental
REM DATE 2007
REM DISCID 3F0B9E05
REM COMMENT "ExactAudioCopy v1.0b3"
PERFORMER "C. Spencer Yeh and Paul Flaherty w/ Greg Kelley"
TITLE "New York Nuts & Boston Beans"
FILE "01-untitled.wav" WAVE
TRACK 01 AUDIO
TITLE "[untitled]"
PERFORMER "C. Spencer Yeh and Paul Flaherty w/ Greg Kelley"
INDEX 01 00:00:00
TRACK 02 AUDIO
TITLE "[untitled]"
PERFORMER "C. Spencer Yeh and Paul Flaherty w/ Greg Kelley"
INDEX 00 12:22:65
FILE "02-untitled.wav" WAVE
INDEX 01 00:00:00
TRACK 03 AUDIO
TITLE "[untitled]"
PERFORMER "C. Spencer Yeh and Paul Flaherty w/ Greg Kelley"
INDEX 00 12:40:64
FILE "03-untitled.wav" WAVE
INDEX 01 00:00:00
TRACK 04 AUDIO
TITLE "[untitled]"
PERFORMER "C. Spencer Yeh and Paul Flaherty w/ Greg Kelley"
INDEX 00 06:09:60
FILE "04-untitled.wav" WAVE
INDEX 01 00:00:00
TRACK 05 AUDIO
TITLE "[untitled]"
PERFORMER "C. Spencer Yeh and Paul Flaherty w/ Greg Kelley"
INDEX 00 07:50:58
FILE "05-untitled.wav" WAVE
INDEX 01 00:00:00
 
Лог проверки качества
AUDIOCHECKER v2.0 beta (build 457) - by Dester - opdester@freemail.hu
~~~~~~~~~~~~~~~~~~~~~~~~~~~~~~~~~~
-=== DO NOT EDIT THIS FILE! ===-
Path: ...\C_Spencer_Yeh_and_Paul_Flaherty_with_Greg_Kelley-New_York_Nuts_and_Boston_Beans-2009
1 -=- 01-untitled.flac -=- CDDA (100%)
2 -=- 02-untitled.flac -=- CDDA (99%)
3 -=- 03-untitled.flac -=- MPEG (95%)
4 -=- 04-untitled.flac -=- MPEG (95%)
5 -=- 05-untitled.flac -=- MPEG (95%)
Summary 42,80% CDDA
209404852
 
Скриншот спектра частот
 
Состав
C. Spencer Yeh voice, violin
Paul Flaherty tenor & alto saxophones
Greg Kelley trumpet (4, 5)
Any questions -> support@pro-jazz.com. По всем вопросам пишите -> support@pro-jazz.com
23:06
133
Нет комментариев. Ваш будет первым!