Вы используете незарегистрированную версию компонента "Вкладки"!

Поиск

(Free Improvisation, Intakt Records) Sylvie Courvoisier - Mark Feldman Quartet - To Fly to Steal - 2010, FLAC (tracks+.cue), lossless

(Free Improvisation, Intakt Records) Sylvie Courvoisier - Mark Feldman Quartet - To Fly to Steal - 2010, FLAC (tracks+.cue), lossless
Издатель (лейбл):
Треклист:
Sylvie Courvoisier - Mark Feldman Quartet / To Fly to Steal
Жанр: Free Improvisation, Intakt Records
Страна-производитель диска: Switzerland
Год издания: 2010
Издатель (лейбл): Intakt Records
Номер по каталогу: CD 168
Аудиокодек: FLAC (*.flac)
Тип рипа: tracks+.cue
Битрейт аудио: lossless
Продолжительность: 1:02:06
Источник (релизер): Max Monteiro
Наличие сканов в содержимом раздачи: да
Треклист:
1. Messianesque (Sylvie Courvoisier) 5:41
2. Whispering Glades (Sylvie Courvoisier, Mark Feldman, Thomas Morgan, Gerry Hemingway) 8:20
3. The Good Life (Mark Feldman) 10:22
4. Five Senses of Keen (Mark Feldman) 12:08
5. Fire, Fist and Bestial Wail (Sylvie Courvoisier, Mark Feldman, Thomas Morgan, Gerry Hemingway) 9:28
6. Coastlines (Sylvie Courvoisier, Mark Feldman, Thomas Morgan, Gerry Hemingway) 5:20
7. To Fly to Steal (Sylvie Courvoisier) 10:48
 
Лог создания рипа
Exact Audio Copy V1.0 beta 3 from 29. August 2011
EAC extraction logfile from 28. May 2013, 10:18
Sylvie Courvoisier - Mark Feldman Quartet / To Fly to Steal
Used drive : SlimtypeeNAU508 5 Adapter: 1 ID: 0
Read mode : Secure
Utilize accurate stream : Yes
Defeat audio cache : Yes
Make use of C2 pointers : No
Read offset correction : 6
Overread into Lead-In and Lead-Out : No
Fill up missing offset samples with silence : Yes
Delete leading and trailing silent blocks : No
Null samples used in CRC calculations : Yes
Used interface : Native Win32 interface for Win NT & 2000
Gap handling : Appended to previous track
Used output format : User Defined Encoder
Selected bitrate : 768 kBit/s
Quality : High
Add ID3 tag : No
Command line compressor : C:\Program Files (x86)\Exact Audio Copy\Flac\flac.exe
Additional command line options : -8 -V -T "ARTIST=%artist%" -T "TITLE=%title%" -T "ALBUM=%albumtitle%" -T "DATE=%year%" -T "TRACKNUMBER=%tracknr%" -T "GENRE=%genre%" -T "PERFORMER=%albuminterpret%" -T "COMPOSER=%composer%" %haslyrics%--tag-from-file=LYRICS="%lyricsfile%"%haslyrics% -T "ALBUMARTIST=%albumartist%" -T "DISCNUMBER=%cdnumber%" -T "TOTALDISCS=%totalcds%" -T "TOTALTRACKS=%numtracks%" -T "COMMENT=%comment%" %source% -o %dest%
TOC of the extracted CD
Track | Start | Length | Start sector | End sector
---------------------------------------------------------
1 | 0:00.00 | 5:41.12 | 0 | 25586
2 | 5:41.12 | 8:19.69 | 25587 | 63080
3 | 14:01.06 | 10:21.52 | 63081 | 109707
4 | 24:22.58 | 12:07.46 | 109708 | 164278
5 | 36:30.29 | 9:28.25 | 164279 | 206903
6 | 45:58.54 | 5:19.53 | 206904 | 230881
7 | 51:18.32 | 10:47.70 | 230882 | 279476
Track 1
Filename C:\EAC rips\01 - Messiaenesque.wav
Pre-gap length 0:00:02.00
Peak level 92.3 %
Extraction speed 2.2 X
Track quality 100.0 %
Test CRC 30DA731E
Copy CRC 30DA731E
Accurately ripped (confidence 7) [77ECE346] (AR v1)
Copy OK
Track 2
Filename C:\EAC rips\02 - Whispering Glades.wav
Peak level 82.7 %
Extraction speed 2.7 X
Track quality 100.0 %
Test CRC BD3110A6
Copy CRC BD3110A6
Accurately ripped (confidence 7) [25A61498] (AR v1)
Copy OK
Track 3
Filename C:\EAC rips\03 - The Good Life.wav
Peak level 93.4 %
Extraction speed 3.3 X
Track quality 100.0 %
Test CRC BD1E83E9
Copy CRC BD1E83E9
Accurately ripped (confidence 7) [82915D7E] (AR v1)
Copy OK
Track 4
Filename C:\EAC rips\04 - Five Senses of Keen.wav
Peak level 76.5 %
Extraction speed 3.8 X
Track quality 100.0 %
Test CRC 89E86310
Copy CRC 89E86310
Accurately ripped (confidence 7) [F2CF41C3] (AR v1)
Copy OK
Track 5
Filename C:\EAC rips\05 - Fire, Fist, and Bestial Wail.wav
Peak level 100.0 %
Extraction speed 4.1 X
Track quality 100.0 %
Test CRC 2D684EE8
Copy CRC 2D684EE8
Accurately ripped (confidence 7) [E8F6E555] (AR v1)
Copy OK
Track 6
Filename C:\EAC rips\06 - Coastlines.wav
Peak level 84.7 %
Extraction speed 3.5 X
Track quality 99.9 %
Test CRC B07F11D3
Copy CRC B07F11D3
Accurately ripped (confidence 7) [CEF91B12] (AR v1)
Copy OK
Track 7
Filename C:\EAC rips\07 - To Fly to Steal.wav
Peak level 57.8 %
Extraction speed 4.7 X
Track quality 100.0 %
Test CRC 9421B0E9
Copy CRC 9421B0E9
Accurately ripped (confidence 7) [1741A09B] (AR v1)
Copy OK
All tracks accurately ripped
No errors occurred
End of status report
---- CUETools DB Plugin V2.1.4
[CTDB TOCID: S_aUl9WqPAtILfRYjk0iBBAsS.o-] disk not present in database
Submit result: S_aUl9WqPAtILfRYjk0iBBAsS.o- has been uploaded
==== Log checksum B16ED9AF3AF0EBD87AB8F06D50BE85717876B9529D8B74DA3648D8DAA4CD291F ====
 
Содержание индексной карты (.CUE)
REM GENRE Jazz
REM DATE 2010
REM DISCID 520E8E07
REM COMMENT "ExactAudioCopy v1.0b3"
CATALOG 7640120191689
PERFORMER "Sylvie Courvoisier - Mark Feldman Quartet"
TITLE "To Fly to Steal"
FILE "01 - Messiaenesque.wav" WAVE
TRACK 01 AUDIO
TITLE "Messiaenesque"
PERFORMER "Sylvie Courvoisier - Mark Feldman Quartet"
ISRC CH2701001015
FLAGS DCP
INDEX 01 00:00:00
FILE "02 - Whispering Glades.wav" WAVE
TRACK 02 AUDIO
TITLE "Whispering Glades"
PERFORMER "Sylvie Courvoisier - Mark Feldman Quartet"
ISRC CH2701001016
FLAGS DCP
INDEX 01 00:00:00
FILE "03 - The Good Life.wav" WAVE
TRACK 03 AUDIO
TITLE "The Good Life"
PERFORMER "Sylvie Courvoisier - Mark Feldman Quartet"
ISRC CH2701001017
FLAGS DCP
INDEX 01 00:00:00
FILE "04 - Five Senses of Keen.wav" WAVE
TRACK 04 AUDIO
TITLE "Five Senses of Keen"
PERFORMER "Sylvie Courvoisier - Mark Feldman Quartet"
ISRC CH2701001018
FLAGS DCP
INDEX 01 00:00:00
FILE "05 - Fire, Fist, and Bestial Wail.wav" WAVE
TRACK 05 AUDIO
TITLE "Fire, Fist, and Bestial Wail"
PERFORMER "Sylvie Courvoisier - Mark Feldman Quartet"
ISRC CH2701001019
FLAGS DCP
INDEX 01 00:00:00
FILE "06 - Coastlines.wav" WAVE
TRACK 06 AUDIO
TITLE "Coastlines"
PERFORMER "Sylvie Courvoisier - Mark Feldman Quartet"
ISRC CH2701001020
FLAGS DCP
INDEX 01 00:00:00
FILE "07 - To Fly to Steal.wav" WAVE
TRACK 07 AUDIO
TITLE "To Fly to Steal"
PERFORMER "Sylvie Courvoisier - Mark Feldman Quartet"
ISRC CH2701001021
FLAGS DCP
INDEX 01 00:00:00
Доп. информация: Recorded in New York on July 23rd, 2009 at Sear Sound Studio.
 
Состав
Sylvie Courvoisier – Piano
Mark Feldman – Violin
Thomas Morgan – Bass
Gerry Hemingway – Drums
Any questions -> support@pro-jazz.com. По всем вопросам пишите -> support@pro-jazz.com
13:55
146
Нет комментариев. Ваш будет первым!