Вы используете незарегистрированную версию компонента "Вкладки"!

Поиск

(Free Improvisation, Intakt Records) Sylvie Courvoisier - Jacques Demierre - Deux Pianos - 2000, FLAC (tracks+.cue), lossless

(Free Improvisation, Intakt Records) Sylvie Courvoisier - Jacques Demierre - Deux Pianos - 2000, FLAC (tracks+.cue), lossless
Издатель (лейбл):
Треклист:
Sylvie Courvoisier - Jacques Demierre / Deux Pianos
Жанр: Free Improvisation, Intakt Records
Страна-производитель диска: Switzerland
Год издания: 2000
Издатель (лейбл): Intakt Records
Номер по каталогу: CD 064
Аудиокодек: FLAC (*.flac)
Тип рипа: tracks+.cue
Битрейт аудио: lossless
Продолжительность: 54:52
Источник (релизер): Max Monteiro
Наличие сканов в содержимом раздачи: да
Треклист:
01. Arraché 2:29
02. Pendulaire 0:48
03. Haut-le-Cœur 2:10
04. Attorno 5:12
05. Tremolio 1:45
06. Incruste 2:45
07. Axe 3:41
08. Étendu 1:19
09. Terminaison 1:12
10. Instant 3:08
11. Quasi 2:49
12. Écorce 6:03
13. Intime 1:27
14. Contre 1:17
15. Hors 4:43
16. Woo 1:29
17. Alto 1:41
18. Sonné 4:28
19. Strette 0:46
20. Treize 4:16
21. Stock 1:23
All compositions by Sylvie Courvoisier and Jacques Demierre.
Recorded live to stereo at Geneva RSR-Espace 2 (Studio Ernest Ansermet) on February 1 & 2, 1999.
Sylvie Courvoisier – Piano
Jacques Demierre – Piano
 
Лог создания рипа
Exact Audio Copy V1.0 beta 3 from 29. August 2011
EAC extraction logfile from 3. June 2013, 18:32
Sylvie Courvoisier - Jacques Demierre / Deux Pianos
Used drive : SlimtypeeNAU508 5 Adapter: 1 ID: 0
Read mode : Secure
Utilize accurate stream : Yes
Defeat audio cache : Yes
Make use of C2 pointers : No
Read offset correction : 6
Overread into Lead-In and Lead-Out : No
Fill up missing offset samples with silence : Yes
Delete leading and trailing silent blocks : No
Null samples used in CRC calculations : Yes
Used interface : Native Win32 interface for Win NT & 2000
Gap handling : Appended to previous track
Used output format : User Defined Encoder
Selected bitrate : 768 kBit/s
Quality : High
Add ID3 tag : No
Command line compressor : C:\Program Files (x86)\Exact Audio Copy\Flac\flac.exe
Additional command line options : -8 -V -T "ARTIST=%artist%" -T "TITLE=%title%" -T "ALBUM=%albumtitle%" -T "DATE=%year%" -T "TRACKNUMBER=%tracknr%" -T "GENRE=%genre%" -T "PERFORMER=%albuminterpret%" -T "COMPOSER=%composer%" %haslyrics%--tag-from-file=LYRICS="%lyricsfile%"%haslyrics% -T "ALBUMARTIST=%albumartist%" -T "DISCNUMBER=%cdnumber%" -T "TOTALDISCS=%totalcds%" -T "TOTALTRACKS=%numtracks%" -T "COMMENT=%comment%" %source% -o %dest%
TOC of the extracted CD
Track | Start | Length | Start sector | End sector
---------------------------------------------------------
1 | 0:00.00 | 2:29.25 | 0 | 11199
2 | 2:29.25 | 0:48.00 | 11200 | 14799
3 | 3:17.25 | 2:10.20 | 14800 | 24569
4 | 5:27.45 | 5:12.25 | 24570 | 47994
5 | 10:39.70 | 1:45.12 | 47995 | 55881
6 | 12:25.07 | 2:44.65 | 55882 | 68246
7 | 15:09.72 | 3:40.43 | 68247 | 84789
8 | 18:50.40 | 1:18.55 | 84790 | 90694
9 | 20:09.20 | 1:12.17 | 90695 | 96111
10 | 21:21.37 | 3:07.50 | 96112 | 110186
11 | 24:29.12 | 2:49.03 | 110187 | 122864
12 | 27:18.15 | 6:03.30 | 122865 | 150119
13 | 33:21.45 | 1:26.57 | 150120 | 156626
14 | 34:48.27 | 1:16.43 | 156627 | 162369
15 | 36:04.70 | 4:42.42 | 162370 | 183561
16 | 40:47.37 | 1:29.18 | 183562 | 190254
17 | 42:16.55 | 1:41.27 | 190255 | 197856
18 | 43:58.07 | 4:28.00 | 197857 | 217956
19 | 48:26.07 | 0:46.33 | 217957 | 221439
20 | 49:12.40 | 4:15.50 | 221440 | 240614
21 | 53:28.15 | 1:23.35 | 240615 | 246874
Track 1
Filename C:\EAC rips\01 - Arraché.wav
Pre-gap length 0:00:02.00
Peak level 65.2 %
Extraction speed 1.9 X
Track quality 100.0 %
Test CRC 45C675A4
Copy CRC 45C675A4
Accurately ripped (confidence 1) [1B2E3976] (AR v2)
Copy OK
Track 2
Filename C:\EAC rips\02 - Pendulaire.wav
Pre-gap length 0:00:01.50
Peak level 44.7 %
Extraction speed 1.3 X
Track quality 100.0 %
Test CRC 381AEF02
Copy CRC 381AEF02
Accurately ripped (confidence 1) [AB051F14] (AR v2)
Copy OK
Track 3
Filename C:\EAC rips\03 - Haut-le-Coeur.wav
Pre-gap length 0:00:01.28
Peak level 18.4 %
Extraction speed 2.0 X
Track quality 100.0 %
Test CRC 18192B49
Copy CRC 18192B49
Accurately ripped (confidence 1) [DF5B1670] (AR v2)
Copy OK
Track 4
Filename C:\EAC rips\04 - Attorno.wav
Pre-gap length 0:00:03.43
Peak level 52.3 %
Extraction speed 2.5 X
Track quality 100.0 %
Test CRC B9FC4B90
Copy CRC B9FC4B90
Accurately ripped (confidence 1) [EF7D30E6] (AR v2)
Copy OK
Track 5
Filename C:\EAC rips\05 - Tremolio.wav
Pre-gap length 0:00:03.30
Peak level 39.9 %
Extraction speed 2.2 X
Track quality 100.0 %
Test CRC 58323DCA
Copy CRC 58323DCA
Accurately ripped (confidence 1) [45A6C261] (AR v2)
Copy OK
Track 6
Filename C:\EAC rips\06 - Incruste.wav
Peak level 31.5 %
Extraction speed 2.6 X
Track quality 100.0 %
Test CRC 06A07B5B
Copy CRC 06A07B5B
Accurately ripped (confidence 1) [CB4AADB3] (AR v2)
Copy OK
Track 7
Filename C:\EAC rips\07 - Axe.wav
Peak level 89.5 %
Extraction speed 2.8 X
Track quality 100.0 %
Test CRC 51E02AF3
Copy CRC 51E02AF3
Accurately ripped (confidence 1) [79E8117F] (AR v2)
Copy OK
Track 8
Filename C:\EAC rips\08 - Étendu.wav
Pre-gap length 0:00:02.05
Peak level 29.8 %
Extraction speed 2.3 X
Track quality 100.0 %
Test CRC 3700F525
Copy CRC 3700F525
Accurately ripped (confidence 1) [6B19F3BA] (AR v2)
Copy OK
Track 9
Filename C:\EAC rips\09 - Terminaison.wav
Pre-gap length 0:00:06.00
Peak level 87.8 %
Extraction speed 2.3 X
Track quality 100.0 %
Test CRC B98516D3
Copy CRC B98516D3
Accurately ripped (confidence 1) [80D0086E] (AR v2)
Copy OK
Track 10
Filename C:\EAC rips\10 - Instant.wav
Pre-gap length 0:00:03.42
Peak level 23.2 %
Extraction speed 3.0 X
Track quality 100.0 %
Test CRC 415D8D40
Copy CRC 415D8D40
Accurately ripped (confidence 1) [19E30653] (AR v2)
Copy OK
Track 11
Filename C:\EAC rips\11 - Quasi.wav
Pre-gap length 0:00:03.45
Peak level 10.8 %
Extraction speed 3.0 X
Track quality 100.0 %
Test CRC A78935D7
Copy CRC A78935D7
Accurately ripped (confidence 1) [59A95C6C] (AR v2)
Copy OK
Track 12
Filename C:\EAC rips\12 - Écorce.wav
Pre-gap length 0:00:01.63
Peak level 58.9 %
Extraction speed 3.5 X
Track quality 100.0 %
Test CRC 32431588
Copy CRC 32431588
Accurately ripped (confidence 1) [C4865EDF] (AR v2)
Copy OK
Track 13
Filename C:\EAC rips\13 - Intime.wav
Pre-gap length 0:00:01.55
Peak level 13.0 %
Extraction speed 2.8 X
Track quality 100.0 %
Test CRC 711D6B59
Copy CRC 711D6B59
Accurately ripped (confidence 1) [A24CC62E] (AR v2)
Copy OK
Track 14
Filename C:\EAC rips\14 - Contre.wav
Pre-gap length 0:00:05.57
Peak level 65.7 %
Extraction speed 2.7 X
Track quality 100.0 %
Test CRC F9BA98C1
Copy CRC F9BA98C1
Accurately ripped (confidence 1) [5FCADFF6] (AR v2)
Copy OK
Track 15
Filename C:\EAC rips\15 - Hors.wav
Pre-gap length 0:00:04.18
Peak level 33.7 %
Extraction speed 3.7 X
Track quality 100.0 %
Test CRC A46D08BC
Copy CRC A46D08BC
Accurately ripped (confidence 1) [FC2CC562] (AR v2)
Copy OK
Track 16
Filename C:\EAC rips\16 - Woo.wav
Pre-gap length 0:00:03.57
Peak level 3.6 %
Extraction speed 3.0 X
Track quality 100.0 %
Test CRC 786B24E4
Copy CRC 786B24E4
Accurately ripped (confidence 1) [5FFEA319] (AR v2)
Copy OK
Track 17
Filename C:\EAC rips\17 - Alto.wav
Peak level 37.1 %
Extraction speed 3.1 X
Track quality 100.0 %
Test CRC 8BD68084
Copy CRC 8BD68084
Accurately ripped (confidence 1) [4642055E] (AR v2)
Copy OK
Track 18
Filename C:\EAC rips\18 - Sonné.wav
Pre-gap length 0:00:05.72
Peak level 45.5 %
Extraction speed 3.9 X
Track quality 100.0 %
Test CRC B506D2BC
Copy CRC B506D2BC
Accurately ripped (confidence 1) [8CBDACF4] (AR v2)
Copy OK
Track 19
Filename C:\EAC rips\19 - Strette.wav
Pre-gap length 0:00:02.00
Peak level 80.0 %
Extraction speed 2.6 X
Track quality 100.0 %
Test CRC 6B94FDE5
Copy CRC 6B94FDE5
Accurately ripped (confidence 1) [5D331AC4] (AR v2)
Copy OK
Track 20
Filename C:\EAC rips\20 - Treize.wav
Pre-gap length 0:00:03.60
Peak level 81.2 %
Extraction speed 4.1 X
Track quality 100.0 %
Test CRC 71CE9C47
Copy CRC 71CE9C47
Accurately ripped (confidence 1) [88F4A64C] (AR v2)
Copy OK
Track 21
Filename C:\EAC rips\21 - Stock.wav
Pre-gap length 0:00:03.70
Peak level 37.3 %
Extraction speed 3.3 X
Track quality 100.0 %
Test CRC 07847F5F
Copy CRC 07847F5F
Accurately ripped (confidence 1) [9F6BBCB1] (AR v2)
Copy OK
All tracks accurately ripped
No errors occurred
End of status report
---- CUETools DB Plugin V2.1.4
[CTDB TOCID: mo6.tzFy5IyOwGcSCatc3kWtuv8-] disk not present in database
Submit result: mo6.tzFy5IyOwGcSCatc3kWtuv8- has been uploaded
==== Log checksum 8CF7BB202D91041CCE600F733C9BAAAE808129F662153DA8F30EB5E181DC7FAD ====
 
Содержание индексной карты (.CUE)
REM GENRE Jazz
REM DATE 2000
REM DISCID 020CDB15
REM COMMENT "ExactAudioCopy v1.0b3"
PERFORMER "Sylvie Courvoisier - Jacques Demierre"
TITLE "Deux Pianos"
FILE "01 - Arraché.wav" WAVE
TRACK 01 AUDIO
TITLE "Arraché"
PERFORMER "Sylvie Courvoisier - Jacques Demierre"
INDEX 01 00:00:00
TRACK 02 AUDIO
TITLE "Pendulaire"
PERFORMER "Sylvie Courvoisier - Jacques Demierre"
INDEX 00 02:27:50
FILE "02 - Pendulaire.wav" WAVE
INDEX 01 00:00:00
TRACK 03 AUDIO
TITLE "Haut-le-Coeur"
PERFORMER "Sylvie Courvoisier - Jacques Demierre"
INDEX 00 00:46:47
FILE "03 - Haut-le-Coeur.wav" WAVE
INDEX 01 00:00:00
TRACK 04 AUDIO
TITLE "Attorno"
PERFORMER "Sylvie Courvoisier - Jacques Demierre"
INDEX 00 02:06:52
FILE "04 - Attorno.wav" WAVE
INDEX 01 00:00:00
TRACK 05 AUDIO
TITLE "Tremolio"
PERFORMER "Sylvie Courvoisier - Jacques Demierre"
INDEX 00 05:08:70
FILE "05 - Tremolio.wav" WAVE
INDEX 01 00:00:00
FILE "06 - Incruste.wav" WAVE
TRACK 06 AUDIO
TITLE "Incruste"
PERFORMER "Sylvie Courvoisier - Jacques Demierre"
INDEX 01 00:00:00
FILE "07 - Axe.wav" WAVE
TRACK 07 AUDIO
TITLE "Axe"
PERFORMER "Sylvie Courvoisier - Jacques Demierre"
INDEX 01 00:00:00
TRACK 08 AUDIO
TITLE "Étendu"
PERFORMER "Sylvie Courvoisier - Jacques Demierre"
INDEX 00 03:38:38
FILE "08 - Étendu.wav" WAVE
INDEX 01 00:00:00
TRACK 09 AUDIO
TITLE "Terminaison"
PERFORMER "Sylvie Courvoisier - Jacques Demierre"
INDEX 00 01:12:55
FILE "09 - Terminaison.wav" WAVE
INDEX 01 00:00:00
TRACK 10 AUDIO
TITLE "Instant"
PERFORMER "Sylvie Courvoisier - Jacques Demierre"
INDEX 00 01:08:50
FILE "10 - Instant.wav" WAVE
INDEX 01 00:00:00
TRACK 11 AUDIO
TITLE "Quasi"
PERFORMER "Sylvie Courvoisier - Jacques Demierre"
INDEX 00 03:04:05
FILE "11 - Quasi.wav" WAVE
INDEX 01 00:00:00
TRACK 12 AUDIO
TITLE "Écorce"
PERFORMER "Sylvie Courvoisier - Jacques Demierre"
INDEX 00 02:47:15
FILE "12 - Écorce.wav" WAVE
INDEX 01 00:00:00
TRACK 13 AUDIO
TITLE "Intime"
PERFORMER "Sylvie Courvoisier - Jacques Demierre"
INDEX 00 06:01:50
FILE "13 - Intime.wav" WAVE
INDEX 01 00:00:00
TRACK 14 AUDIO
TITLE "Contre"
PERFORMER "Sylvie Courvoisier - Jacques Demierre"
INDEX 00 01:21:00
FILE "14 - Contre.wav" WAVE
INDEX 01 00:00:00
TRACK 15 AUDIO
TITLE "Hors"
PERFORMER "Sylvie Courvoisier - Jacques Demierre"
INDEX 00 01:12:25
FILE "15 - Hors.wav" WAVE
INDEX 01 00:00:00
TRACK 16 AUDIO
TITLE "Woo"
PERFORMER "Sylvie Courvoisier - Jacques Demierre"
INDEX 00 04:38:60
FILE "16 - Woo.wav" WAVE
INDEX 01 00:00:00
FILE "17 - Alto.wav" WAVE
TRACK 17 AUDIO
TITLE "Alto"
PERFORMER "Sylvie Courvoisier - Jacques Demierre"
INDEX 01 00:00:00
TRACK 18 AUDIO
TITLE "Sonné"
PERFORMER "Sylvie Courvoisier - Jacques Demierre"
INDEX 00 01:35:30
FILE "18 - Sonné.wav" WAVE
INDEX 01 00:00:00
TRACK 19 AUDIO
TITLE "Strette"
PERFORMER "Sylvie Courvoisier - Jacques Demierre"
INDEX 00 04:26:00
FILE "19 - Strette.wav" WAVE
INDEX 01 00:00:00
TRACK 20 AUDIO
TITLE "Treize"
PERFORMER "Sylvie Courvoisier - Jacques Demierre"
INDEX 00 00:42:48
FILE "20 - Treize.wav" WAVE
INDEX 01 00:00:00
TRACK 21 AUDIO
TITLE "Stock"
PERFORMER "Sylvie Courvoisier - Jacques Demierre"
INDEX 00 04:11:55
FILE "21 - Stock.wav" WAVE
INDEX 01 00:00:00
Any questions -> support@pro-jazz.com. По всем вопросам пишите -> support@pro-jazz.com
14:23
149
Нет комментариев. Ваш будет первым!