Вы используете незарегистрированную версию компонента "Вкладки"!

Поиск

(Free Improvisation, Free Jazz) Mario Schiano (Paul Lovens, Maarten Altena, Jean-Marc Montera, Evan Parker, Alex von Schlippenbach, Joelle Leandre, Paul Lytton, Co Streiff) - Unlike - 1990, FLAC (image+.cue), lossless

(Free Improvisation, Free Jazz) Mario Schiano (Paul Lovens, Maarten Altena, Jean-Marc Montera, Evan Parker, Alex von Schlippenbach, Joelle Leandre, Paul Lytton, Co Streiff) - Unlike - 1990, FLAC (image+.cue), lossless
Треклист:
Mario Schiano / Unlike
Жанр: Free Improvisation, Free Jazz
Страна-производитель диска: Italy
Год издания: 1990
Издатель (лейбл): Splasc(h) Records
Номер по каталогу: CD H 309-2
Аудиокодек: FLAC (*.flac)
Тип рипа: image+.cue
Битрейт аудио: lossless
Продолжительность: 67:36
Источник (релизер): cd
Наличие сканов в содержимом раздачи: нет
Треклист:
Unlike
1 1st Set 25:09
2 2nd Set 18:08
Flirt
3 A 1:34
4 B 2:58
Trend
5 1st Excerpt 6:44
6 2nd Excerpt 13:04
 
Лог создания рипа
Exact Audio Copy V1.0 beta 2 from 29. April 2011
EAC extraction logfile from 13. October 2013, 15:45
Mario Schiano / Unlike
Used drive : Optiarc DVD RW AD-7170A Adapter: 0 ID: 0
Read mode : Secure
Utilize accurate stream : Yes
Defeat audio cache : Yes
Make use of C2 pointers : No
Read offset correction : 48
Overread into Lead-In and Lead-Out : No
Fill up missing offset samples with silence : Yes
Delete leading and trailing silent blocks : No
Null samples used in CRC calculations : Yes
Used interface : Native Win32 interface for Win NT & 2000
Used output format : User Defined Encoder
Selected bitrate : 320 kBit/s
Quality : High
Add ID3 tag : No
Command line compressor : C:\Program Files\Exact Audio Copy\Flac\flac.exe
Additional command line options : -V -8 -T "Date=%year%" -T "Genre=%genre%" %source%
TOC of the extracted CD
Track | Start | Length | Start sector | End sector
---------------------------------------------------------
1 | 0:00.33 | 25:18.00 | 33 | 113882
2 | 25:18.33 | 18:01.15 | 113883 | 194972
3 | 43:19.48 | 1:30.30 | 194973 | 201752
4 | 44:50.03 | 2:58.30 | 201753 | 215132
5 | 47:48.33 | 6:44.25 | 215133 | 245457
6 | 54:32.58 | 13:04.50 | 245458 | 304307
Range status and errors
Selected range
Filename K:\ЕАС\Mario Schiano - Unlike.wav
Peak level 97.4 %
Extraction speed 5.4 X
Range quality 100.0 %
Test CRC 56768018
Copy CRC 56768018
Copy OK
No errors occurred
AccurateRip summary
Track 1 accurately ripped (confidence 3) [B82CE14A] (AR v1)
Track 2 accurately ripped (confidence 3) [E5F17BF8] (AR v1)
Track 3 accurately ripped (confidence 3) [4F36BA73] (AR v1)
Track 4 accurately ripped (confidence 3) [CCAAEDD5] (AR v1)
Track 5 accurately ripped (confidence 3) [4C8F0415] (AR v1)
Track 6 accurately ripped (confidence 3) [45BE5070] (AR v1)
All tracks accurately ripped
End of status report
==== Log checksum 922C39CBB21714D5AD08DF81739AB8B049930F9241F518423FB86A9946C75232 ====
 
Содержание индексной карты (.CUE)
REM GENRE Jazz
REM DATE 1990
REM DISCID 470FD906
REM COMMENT "ExactAudioCopy v1.0b2"
PERFORMER "Mario Schiano"
TITLE "Unlike"
FILE "Mario Schiano - Unlike.flac" WAVE
TRACK 01 AUDIO
TITLE "Unlike (to Cecilia's smile) 1st set"
PERFORMER "Mario Schiano"
INDEX 00 00:00:00
INDEX 01 00:00:33
TRACK 02 AUDIO
TITLE "Unlike (to Cecilia's smile) 2nd set"
PERFORMER "Mario Schiano"
INDEX 00 25:07:33
INDEX 01 25:18:33
TRACK 03 AUDIO
TITLE "Flirt A"
PERFORMER "Mario Schiano"
INDEX 00 43:15:33
INDEX 01 43:19:48
TRACK 04 AUDIO
TITLE "Flirt B"
PERFORMER "Mario Schiano"
INDEX 01 44:50:03
TRACK 05 AUDIO
TITLE "Trend 1st excerpt"
PERFORMER "Mario Schiano"
INDEX 01 47:48:33
TRACK 06 AUDIO
TITLE "Trend 2nd excerpt"
PERFORMER "Mario Schiano"
INDEX 01 54:32:58
 
Об альбоме (сборнике)
Tracks 1, 2: Complete rec. of the concert held at the 'Colosseo Theater-Beat 72' in Rome during the 'Controindicazioni 4. Improvisers' Sessions' Festival on March 30, 1990.
Tracks 3, 4: Recorded in Rome at the 'Wonderland Rec. Studios' on March 27, 1990.
Tracks 5, 6: Excerpts from the concert held at the 'Colosseo Theater-Beat 72' in Rome during the 'Controindicazioni 4. Improviser's Sessions' Festival on March 29, 1990.
 
Состав
Alto Saxophone – Mario Schiano
1-2 Double Bass – Maarten Altena, Drums [Cymbals] – Paul Lovens, Guitar – Jean-Marc Montera
3-4 Alto Saxophone – Co Streiff
5-6 Double Bass – Joëlle Léandre, Drums – Paul Lytton, Piano – Alex von Schlippenbach, Tenor Saxophone – Evan Parker
По всем вопросам пишите личное сообщение пользователю M0p94ok.
19:04
326
Нет комментариев. Ваш будет первым!