Вы используете незарегистрированную версию компонента "Вкладки"!

Поиск

(ecm, jazz, avant-garde) Food - Quiet Inlet [ECM 2163] - 2010, FLAC (tracks+.cue), lossless

Треклист:
Food
(with Nils Petter Molvær & Christian Fennesz)
Quiet Inlet
Жанр: jazz, avant-garde
Страна-производитель диска: Germany
Год издания диска: 2010
Издатель (лейбл): ECM Records
Номер по каталогу: ECM 2163
Аудио кодек: FLAC (*.flac)
Тип рипа: tracks+.cue
Битрейт аудио: lossless
Продолжительность: 00:47:01
Источник (релизер): другой трекер
Наличие сканов в содержимом раздачи: да
Трэклист:
01. Tobiko
02. Chimaera
03. Mictyris
04. Becalmed
05. Cirrina
06. Dweller
07. Fathom
Исполнители:
Thomas Strønen - (drums, live-electronics)
Iain Ballamy - (tenor and soprano saxophones)
Nils Petter Molvær - (trumpet, electronics)
Christian Fennesz - (guitar, electronics)
 
Лог создания рипа
Exact Audio Copy V0.99 prebeta 5 from 4. May 2009
EAC extraction logfile from 6. July 2010, 18:01
Food / Quiet Inlet
Used drive : Optiarc DVD RW AD-7240S Adapter: 3 ID: 1
Read mode : Secure
Utilize accurate stream : Yes
Defeat audio cache : Yes
Make use of C2 pointers : No
Read offset correction : 48
Overread into Lead-In and Lead-Out : No
Fill up missing offset samples with silence : Yes
Delete leading and trailing silent blocks : No
Null samples used in CRC calculations : Yes
Used interface : Installed external ASPI interface
Gap handling : Appended to previous track
Used output format : User Defined Encoder
Selected bitrate : 1024 kBit/s
Quality : High
Add ID3 tag : No
Command line compressor : C:\Program Files\Exact Audio Copy\Flac\flac.exe
Additional command line options : -8 -V -T "ARTIST=%a" -T "TITLE=%t" -T "ALBUM=%g" -T "DATE=%y" -T "TRACKNUMBER=%n" -T "TOTALTRACKS=%x" -T "GENRE=%m" -T "ALBUMARTIST=%v" -T "ALBUM ARTIST=%v" -T "COMMENT=EAC Secure Mode, Test & Copy, AccurateRip, FLAC -8" %s
TOC of the extracted CD
Track | Start | Length | Start sector | End sector
---------------------------------------------------------
1 | 0:00.00 | 7:08.26 | 0 | 32125
2 | 7:08.26 | 5:00.40 | 32126 | 54665
3 | 12:08.66 | 5:41.09 | 54666 | 80249
4 | 17:50.00 | 7:52.42 | 80250 | 115691
5 | 25:42.42 | 6:16.13 | 115692 | 143904
6 | 31:58.55 | 6:23.62 | 143905 | 172691
7 | 38:22.42 | 8:38.56 | 172692 | 211597
Track 1
Filename F:\MY RIPS\01 - Tobiko.wav
Pre-gap length 0:00:02.00
Peak level 98.8 %
Track quality 99.9 %
Test CRC ED036442
Copy CRC ED036442
Accurately ripped (confidence 3) [5D3D62A0]
Copy OK
Track 2
Filename F:\MY RIPS\02 - Chimaera.wav
Peak level 64.1 %
Track quality 100.0 %
Test CRC D7F50ED5
Copy CRC D7F50ED5
Accurately ripped (confidence 3) [AAB677DB]
Copy OK
Track 3
Filename F:\MY RIPS\03 - Mictyris.wav
Peak level 98.8 %
Track quality 100.0 %
Test CRC 57E2F408
Copy CRC 57E2F408
Accurately ripped (confidence 3) [1687CF44]
Copy OK
Track 4
Filename F:\MY RIPS\04 - Becalmed.wav
Peak level 91.6 %
Track quality 100.0 %
Test CRC 27A922C0
Copy CRC 27A922C0
Accurately ripped (confidence 3) [52A71339]
Copy OK
Track 5
Filename F:\MY RIPS\05 - Cirrina.wav
Pre-gap length 0:00:01.24
Peak level 67.5 %
Track quality 100.0 %
Test CRC E85F13BB
Copy CRC E85F13BB
Accurately ripped (confidence 3) [C4086414]
Copy OK
Track 6
Filename F:\MY RIPS\06 - Dweller.wav
Peak level 80.1 %
Track quality 100.0 %
Test CRC C7CD4533
Copy CRC C7CD4533
Accurately ripped (confidence 3) [708910F2]
Copy OK
Track 7
Filename F:\MY RIPS\07 - Fathom.wav
Pre-gap length 0:00:02.74
Peak level 92.8 %
Track quality 100.0 %
Test CRC BF582C43
Copy CRC BF582C43
Accurately ripped (confidence 3) [D5EFEC77]
Copy OK
All tracks accurately ripped
No errors occurred
End of status report
 
Содержание индексной карты (.cue)
REM GENRE Jazz
REM DATE 2010
REM DISCID 400B0507
REM COMMENT "ExactAudioCopy v0.99pb5"
CATALOG 0602527349190
PERFORMER "Food"
TITLE "Quiet Inlet"
FILE "01 - Tobiko.wav" WAVE
TRACK 01 AUDIO
TITLE "Tobiko"
PERFORMER "Food"
ISRC DEB330916301
INDEX 01 00:00:00
FILE "02 - Chimaera.wav" WAVE
TRACK 02 AUDIO
TITLE "Chimaera"
PERFORMER "Food"
ISRC DEB330916302
INDEX 01 00:00:00
FILE "03 - Mictyris.wav" WAVE
TRACK 03 AUDIO
TITLE "Mictyris"
PERFORMER "Food"
ISRC DEB330916303
INDEX 01 00:00:00
FILE "04 - Becalmed.wav" WAVE
TRACK 04 AUDIO
TITLE "Becalmed"
PERFORMER "Food"
ISRC DEB330916304
INDEX 01 00:00:00
TRACK 05 AUDIO
TITLE "Cirrina"
PERFORMER "Food"
ISRC DEB330916305
INDEX 00 07:51:18
FILE "05 - Cirrina.wav" WAVE
INDEX 01 00:00:00
FILE "06 - Dweller.wav" WAVE
TRACK 06 AUDIO
TITLE "Dweller"
PERFORMER "Food"
ISRC DEB330916306
INDEX 01 00:00:00
TRACK 07 AUDIO
TITLE "Fathom"
PERFORMER "Food"
ISRC DEB330916307
INDEX 00 06:20:63
FILE "07 - Fathom.wav" WAVE
INDEX 01 00:00:00

По всем вопросам пишите личное сообщение пользователю M0p94ok.
22:35
164
Нет комментариев. Ваш будет первым!