Поиск

(ecm, contemporary jazz, norway) Ketil Bjornstad (David Darling, Terje Rypdal, Jon Christensen, Anneli Drecker, Randi Stene, Kolbein Falkeid, Lars Anders Tomter, Tore Brunborg, Svante Henryson) - коллекция, 1990-2011, 21 albums, [FLAC] lossless

Треклист:
Внимание! 30-03-2012 раздача обновлена.
Ничего не убрано. Добавлены:
+ сборник [2000] Early Years [FLAC] {Universal 013 271-2}
+ [2006] Rainbow Sessions [FLAC] {Emarcy Universal 0602498561324}
+ [2011] Early Piano Music [FLAC] {Hubro HUBRO CD2506}просьба перезалить торрент-файл и послушать нового Кетила -)
Ketil Bjørnstad - Коллекция

David Darling / Terje Rypdal / Jon Christensen / Anneli Drecker /Randi Stene / Kolbein Falkeid / Lars Anders Tomter
Tore Brunborg / Svante Henryson / Nils Petter Molvær / Eivind Aarset / Kristin Asbjørnsen
Жанр: contemporary jazz
Год выпуска дисков: 1990-2011
Количество альбомов: 21
Общая продолжительность: 25ч 32м 06с
Bio
Кетил Бьорнстад (Ketil Bjørnstad) уже в течении 40 лет работает в импровизационной музыке. Получив классическое музыкальное образование (в Осло, Лондоне и Париже), Бьорнстад в 1969 году стал солистом Филармонического оркестра Осло. Однако, познакомившись с альбомом Майлса Дэвиса (Miles Davis) In A Silent Way, пианист обратил свои музыкальные устремления в сторону джаза. В 1973 году он впервые сыграл с Йоном Кристенсеном (Jon Cristensen) и Арильдом Андерсеном (Arild Andersen). Игра на фортепьяно Бьорнстада (прохладная и в тоже время полная внутреннего огня) удивительно естественна. Написал 18 книг (включая 14 романов) в Норвегии.
 
 

Part I
 
[1990] The Shadow (featuring Randi Stene) {Kirkelig Kulturverksted FXCD93}
Аудио кодек: FLAC (*.flac)
Тип рипа: tracks+.cue + covers
Битрейт аудио: lossless
Продолжительность: 00:55:15
Источник (релизер): zopatista
Наличие сканов в содержимом раздачи: нет
Треклист:
1. Sweetest Love
2. A Lecture Upon the Shadow
3. The Shadow
4. The Good-morrow
5. Go, and Catch a Falling Star
6. The Dream
7. The Token
8. The Paradox
9. His Picture
10. Love's Exchange
11. The Silence
12. Hymn
Для особо ярых поклонников пианиста. Специфический диск, на любителя.
Слушаем тут:
 
 
коврики




 
 
 
Лог создания рипа
X Lossless Decoder version 20100904 (120.7)
XLD extraction logfile from 2010-09-06 19:30:50 +0200
Ketil Bjørnstad / The Shadow
Used drive : HL-DT-ST DVDRW  GSA-S10N (revision AP12)
Use cdparanoia mode     : YES (CDParanoia III 10.2 engine)
Disable audio cache     : OK for the drive with cache less than 2750KB
Make use of C2 pointers : NO
Read offset correction  : 667
Max retry count         : 100
Gap status              : Analyzed, Appended
TOC of the extracted CD
     Track |   Start  |  Length  | Start sector | End sector
    ---------------------------------------------------------
        1  | 00:00:00 | 05:55:10 |         0    |    26634
        2  | 05:55:10 | 04:52:70 |     26635    |    48604
        3  | 10:48:05 | 06:46:42 |     48605    |    79096
        4  | 17:34:47 | 04:10:10 |     79097    |    97856
        5  | 21:44:57 | 04:29:73 |     97857    |   118104
        6  | 26:14:55 | 04:03:17 |    118105    |   136346
        7  | 30:17:72 | 04:02:38 |    136347    |   154534
        8  | 34:20:35 | 03:23:00 |    154535    |   169759
        9  | 37:43:35 | 04:54:52 |    169760    |   191861
       10  | 42:38:12 | 04:53:08 |    191862    |   213844
       11  | 47:31:20 | 04:55:07 |    213845    |   235976
       12  | 52:26:27 | 02:47:63 |    235977    |   248564
All Tracks
    Album gain             : 0.45 dB
    Peak                   : 0.999969
Track 01
    Filename : /Unsorted MP3/00 In Progress/Ketil Bjørnstad - 1990 - The Shadow/01 - Sweetest Love.flac
    Pre-gap length : 00:02:00
    Track gain             : 1.87 dB
    Peak                   : 0.926941
    CRC32 hash (test run)  : C23398A3
    CRC32 hash             : C23398A3
    CRC32 hash (skip zero) : DA5396B5
    AccurateRip signature  : 756CED2E
        ->Accurately ripped! (confidence 2)
    Statistics
        Read error                           : 0
        Skipped (treated as error)           : 0
        Edge jitter error (maybe fixed)      : 0
        Atom jitter error (maybe fixed)      : 0
        Drift error (maybe fixed)            : 0
        Dropped bytes error (maybe fixed)    : 0
        Duplicated bytes error (maybe fixed) : 0
        Inconsistency in error sectors       : 0
Track 02
    Filename : /Unsorted MP3/00 In Progress/Ketil Bjørnstad - 1990 - The Shadow/02 - A Lecture Upon the Shadow.flac
    Pre-gap length : 00:02:48
    Track gain             : 0.01 dB
    Peak                   : 0.816071
    CRC32 hash (test run)  : 64227AA4
    CRC32 hash             : 64227AA4
    CRC32 hash (skip zero) : 90E0D129
    AccurateRip signature  : DA7AFD42
        ->Accurately ripped! (confidence 2)
    Statistics
        Read error                           : 0
        Skipped (treated as error)           : 0
        Edge jitter error (maybe fixed)      : 0
        Atom jitter error (maybe fixed)      : 0
        Drift error (maybe fixed)            : 0
        Dropped bytes error (maybe fixed)    : 0
        Duplicated bytes error (maybe fixed) : 0
        Inconsistency in error sectors       : 0
Track 03
    Filename : /Unsorted MP3/00 In Progress/Ketil Bjørnstad - 1990 - The Shadow/03 - The Shadow.flac
    Pre-gap length : 00:02:18
    Track gain             : 1.69 dB
    Peak                   : 0.876892
    CRC32 hash (test run)  : E039D7C0
    CRC32 hash             : E039D7C0
    CRC32 hash (skip zero) : 5AEB33B6
    AccurateRip signature  : 12648E3B
        ->Accurately ripped! (confidence 2)
    Statistics
        Read error                           : 0
        Skipped (treated as error)           : 0
        Edge jitter error (maybe fixed)      : 0
        Atom jitter error (maybe fixed)      : 0
        Drift error (maybe fixed)            : 0
        Dropped bytes error (maybe fixed)    : 0
        Duplicated bytes error (maybe fixed) : 0
        Inconsistency in error sectors       : 0
Track 04
    Filename : /Unsorted MP3/00 In Progress/Ketil Bjørnstad - 1990 - The Shadow/04 - The Good-morrow.flac
    Pre-gap length : 00:02:17
    Track gain             : 0.75 dB
    Peak                   : 0.911835
    CRC32 hash (test run)  : 374099A6
    CRC32 hash             : 374099A6
    CRC32 hash (skip zero) : F6A1E282
    AccurateRip signature  : 0CFF0FF7
        ->Accurately ripped! (confidence 2)
    Statistics
        Read error                           : 0
        Skipped (treated as error)           : 0
        Edge jitter error (maybe fixed)      : 0
        Atom jitter error (maybe fixed)      : 0
        Drift error (maybe fixed)            : 0
        Dropped bytes error (maybe fixed)    : 0
        Duplicated bytes error (maybe fixed) : 0
        Inconsistency in error sectors       : 0
Track 05
    Filename : /Unsorted MP3/00 In Progress/Ketil Bjørnstad - 1990 - The Shadow/05 - Go, and Catch a Falling Star.flac
    Pre-gap length : 00:01:72
    Track gain             : 3.04 dB
    Peak                   : 0.913727
    CRC32 hash (test run)  : 41E87F28
    CRC32 hash             : 41E87F28
    CRC32 hash (skip zero) : 72AC688F
    AccurateRip signature  : 4F673471
        ->Accurately ripped! (confidence 2)
    Statistics
        Read error                           : 0
        Skipped (treated as error)           : 0
        Edge jitter error (maybe fixed)      : 0
        Atom jitter error (maybe fixed)      : 0
        Drift error (maybe fixed)            : 0
        Dropped bytes error (maybe fixed)    : 0
        Duplicated bytes error (maybe fixed) : 0
        Inconsistency in error sectors       : 0
Track 06
    Filename : /Unsorted MP3/00 In Progress/Ketil Bjørnstad - 1990 - The Shadow/06 - The Dream.flac
    Pre-gap length : 00:04:35
    Track gain             : 0.39 dB
    Peak                   : 0.840057
    CRC32 hash (test run)  : CFFE5BDF
    CRC32 hash             : CFFE5BDF
    CRC32 hash (skip zero) : 6871E92A
    AccurateRip signature  : 1EE624C1
        ->Accurately ripped! (confidence 2)
    Statistics
        Read error                           : 0
        Skipped (treated as error)           : 0
        Edge jitter error (maybe fixed)      : 0
        Atom jitter error (maybe fixed)      : 0
        Drift error (maybe fixed)            : 0
        Dropped bytes error (maybe fixed)    : 0
        Duplicated bytes error (maybe fixed) : 0
        Inconsistency in error sectors       : 0
Track 07
    Filename : /Unsorted MP3/00 In Progress/Ketil Bjørnstad - 1990 - The Shadow/07 - The Token.flac
    Pre-gap length : 00:04:67
    Track gain             : 1.73 dB
    Peak                   : 0.795837
    CRC32 hash (test run)  : FBBE04B5
    CRC32 hash             : FBBE04B5
    CRC32 hash (skip zero) : 8E0AEC6D
    AccurateRip signature  : 67B4B287
        ->Accurately ripped! (confidence 2)
    Statistics
        Read error                           : 0
        Skipped (treated as error)           : 0
        Edge jitter error (maybe fixed)      : 0
        Atom jitter error (maybe fixed)      : 0
        Drift error (maybe fixed)            : 0
        Dropped bytes error (maybe fixed)    : 0
        Duplicated bytes error (maybe fixed) : 0
        Inconsistency in error sectors       : 0
Track 08
    Filename : /Unsorted MP3/00 In Progress/Ketil Bjørnstad - 1990 - The Shadow/08 - The Paradox.flac
    Pre-gap length : 00:02:20
    Track gain             : 0.00 dB
    Peak                   : 0.999969
    CRC32 hash (test run)  : 8C70BEF8
    CRC32 hash             : 8C70BEF8
    CRC32 hash (skip zero) : 1EC45B67
    AccurateRip signature  : 5CA93B56
        ->Accurately ripped! (confidence 2)
    Statistics
        Read error                           : 0
        Skipped (treated as error)           : 0
        Edge jitter error (maybe fixed)      : 0
        Atom jitter error (maybe fixed)      : 0
        Drift error (maybe fixed)            : 0
        Dropped bytes error (maybe fixed)    : 0
        Duplicated bytes error (maybe fixed) : 0
        Inconsistency in error sectors       : 0
Track 09
    Filename : /Unsorted MP3/00 In Progress/Ketil Bjørnstad - 1990 - The Shadow/09 - His Picture.flac
    Pre-gap length : 00:01:13
    Track gain             : -1.27 dB
    Peak                   : 0.862244
    CRC32 hash (test run)  : 7468AE5C
    CRC32 hash             : 7468AE5C
    CRC32 hash (skip zero) : EEEC8C91
    AccurateRip signature  : 1677487C
        ->Accurately ripped! (confidence 2)
    Statistics
        Read error                           : 0
        Skipped (treated as error)           : 0
        Edge jitter error (maybe fixed)      : 0
        Atom jitter error (maybe fixed)      : 0
        Drift error (maybe fixed)            : 0
        Dropped bytes error (maybe fixed)    : 0
        Duplicated bytes error (maybe fixed) : 0
        Inconsistency in error sectors       : 0
Track 10
    Filename : /Unsorted MP3/00 In Progress/Ketil Bjørnstad - 1990 - The Shadow/10 - Love's Exchange.flac
    Pre-gap length : 00:04:02
    Track gain             : 0.86 dB
    Peak                   : 0.836090
    CRC32 hash (test run)  : C283C3E2
    CRC32 hash             : C283C3E2
    CRC32 hash (skip zero) : BA128168
    AccurateRip signature  : 16415901
        ->Accurately ripped! (confidence 2)
    Statistics
        Read error                           : 0
        Skipped (treated as error)           : 0
        Edge jitter error (maybe fixed)      : 0
        Atom jitter error (maybe fixed)      : 0
        Drift error (maybe fixed)            : 0
        Dropped bytes error (maybe fixed)    : 0
        Duplicated bytes error (maybe fixed) : 0
        Inconsistency in error sectors       : 0
Track 11
    Filename : /Unsorted MP3/00 In Progress/Ketil Bjørnstad - 1990 - The Shadow/11 - The Silence.flac
    Pre-gap length : 00:02:43
    Track gain             : 1.49 dB
    Peak                   : 0.801941
    CRC32 hash (test run)  : 2391A9AF
    CRC32 hash             : 2391A9AF
    CRC32 hash (skip zero) : E3946E94
    AccurateRip signature  : 82597CAF
        ->Accurately ripped! (confidence 2)
    Statistics
        Read error                           : 0
        Skipped (treated as error)           : 0
        Edge jitter error (maybe fixed)      : 0
        Atom jitter error (maybe fixed)      : 0
        Drift error (maybe fixed)            : 0
        Dropped bytes error (maybe fixed)    : 0
        Duplicated bytes error (maybe fixed) : 0
        Inconsistency in error sectors       : 0
Track 12
    Filename : /Unsorted MP3/00 In Progress/Ketil Bjørnstad - 1990 - The Shadow/12 - Hymn.flac
    Pre-gap length : 00:02:25
    Track gain             : -0.67 dB
    Peak                   : 0.770782
    CRC32 hash (test run)  : 77EACC17
    CRC32 hash             : 77EACC17
    CRC32 hash (skip zero) : CF06E150
    AccurateRip signature  : 1FA176A3
        ->Accurately ripped! (confidence 2)
    Statistics
        Read error                           : 0
        Skipped (treated as error)           : 0
        Edge jitter error (maybe fixed)      : 0
        Atom jitter error (maybe fixed)      : 0
        Drift error (maybe fixed)            : 0
        Dropped bytes error (maybe fixed)    : 0
        Duplicated bytes error (maybe fixed) : 0
        Inconsistency in error sectors       : 0
No errors occurred
End of status report
 
 
Содержание индексной карты (.CUE)
TITLE "The Shadow"
PERFORMER "Ketil Bjørnstad"
REM DATE "1990"
REM DISCID A00CF20C
FILE "01 - Sweetest Love.wav" WAVE
  TRACK 01 AUDIO
    TITLE "Sweetest Love"
    INDEX 01 00:00:00
  TRACK 02 AUDIO
    TITLE "A Lecture Upon the Shadow"
    INDEX 00 05:52:37
FILE "02 - A Lecture Upon the Shadow.wav" WAVE
    INDEX 01 00:00:00
  TRACK 03 AUDIO
    TITLE "The Shadow"
    INDEX 00 04:50:52
FILE "03 - The Shadow.wav" WAVE
    INDEX 01 00:00:00
  TRACK 04 AUDIO
    TITLE "The Good-morrow"
    INDEX 00 06:44:25
FILE "04 - The Good-morrow.wav" WAVE
    INDEX 01 00:00:00
  TRACK 05 AUDIO
    TITLE "Go, and Catch a Falling Star"
    INDEX 00 04:08:13
FILE "05 - Go, and Catch a Falling Star.wav" WAVE
    INDEX 01 00:00:00
  TRACK 06 AUDIO
    TITLE "The Dream"
    INDEX 00 04:25:38
FILE "06 - The Dream.wav" WAVE
    INDEX 01 00:00:00
  TRACK 07 AUDIO
    TITLE "The Token"
    INDEX 00 03:58:25
FILE "07 - The Token.wav" WAVE
    INDEX 01 00:00:00
  TRACK 08 AUDIO
    TITLE "The Paradox"
    INDEX 00 04:00:18
FILE "08 - The Paradox.wav" WAVE
    INDEX 01 00:00:00
  TRACK 09 AUDIO
    TITLE "His Picture"
    INDEX 00 03:21:62
FILE "09 - His Picture.wav" WAVE
    INDEX 01 00:00:00
  TRACK 10 AUDIO
    TITLE "Love's Exchange"
    INDEX 00 04:50:50
FILE "10 - Love's Exchange.wav" WAVE
    INDEX 01 00:00:00
  TRACK 11 AUDIO
    TITLE "The Silence"
    INDEX 00 04:50:40
FILE "11 - The Silence.wav" WAVE
    INDEX 01 00:00:00
  TRACK 12 AUDIO
    TITLE "Hymn"
    INDEX 00 04:52:57
FILE "12 - Hymn.wav" WAVE
    INDEX 01 00:00:00
 
 
Об альбоме
Album devised from poems by John Donne.
Ingar Marcussen - In memoriam.
Recorded and mixed at Rainbow Studio, Oslo, Norway 1990.
Mastered at The Cutting Room, Stockholm.
 
 
Состав
Bass - Arild Andersen
Drums, Percussion - Jon Christensen
Engineer - Jan-Erik Kongshaug
Guitar - Frode Alnæs
Piano, Producer, Composed By, Arranged By - Ketil Bjørnstad
Viola - Lars Anders Tomter
Vocals - Randi Stene
 
 
[1993] Water Stories {ECM 1503}
Аудио кодек: FLAC
Тип рипа: tracks+.cue + Complete Artwork
Продолжительность: 00:57:47
Источник (релизер): waffles
Треклист:
1. Part one: Blue Ice (The Glacier)
2. Glacial Reconstruction
3. Levels And Degrees
4. Surface Movements
5. The View I
6. Between Memory And Presentiment
7. Part two: Approaching The Sea *
8. Ten Thousand Years Later
9. Waterfall
10. Flotation And Surroundings
11. Riverscape
12. Approaching The Sea
13. The View II
14. History
Bass – Bjørn Kjellemyr
Composed By – Ketil Bjørnstad
Drums – Jon Christensen, Per Hillestad (tracks: 6 to 12)
Guitar – Terje Rypdal
Piano – Ketil Bjørnstad
Producer – Manfred Eicher
 
 
 
log
Exact Audio Copy V0.99 prebeta 5 from 4. May 2009
EAC extraction logfile from 24. May 2009, 19:47
Ketil Bjшrnstad / Water Stories
Used drive  : ATAPI   DVD+/-R/RW8XMAX   Adapter: 0  ID: 0
Read mode               : Secure
Utilize accurate stream : Yes
Defeat audio cache      : Yes
Make use of C2 pointers : No
Read offset correction                      : 12
Overread into Lead-In and Lead-Out          : No
Fill up missing offset samples with silence : Yes
Delete leading and trailing silent blocks   : No
Null samples used in CRC calculations       : Yes
Used interface                              : Native Win32 interface for Win NT & 2000
Gap handling                                : Appended to previous track
Used output format              : User Defined Encoder
Selected bitrate                : 128 kBit/s
Quality                         : High
Add ID3 tag                     : No
Command line compressor         : C:\Program Files (x86)\Exact Audio Copy\Flac\flac.exe
Additional command line options : -V -8 -T "artist=%a" -T "title=%t" -T "album=%g" -T "date=%y" -T "tracknumber=%n" -T "genre=%m" %s
TOC of the extracted CD
     Track |   Start  |  Length  | Start sector | End sector
    ---------------------------------------------------------
        1  |  0:00.33 |  6:58.65 |        33    |    31447
        2  |  6:59.23 |  7:19.60 |     31448    |    64432
        3  | 14:19.08 |  4:27.07 |     64433    |    84464
        4  | 18:46.15 |  5:18.33 |     84465    |   108347
        5  | 24:04.48 |  4:02.47 |    108348    |   126544
        6  | 28:07.20 |  7:09.68 |    126545    |   158787
        7  | 35:17.13 |  2:14.20 |    158788    |   168857
        8  | 37:31.33 |  5:20.37 |    168858    |   192894
        9  | 42:51.70 |  2:14.15 |    192895    |   202959
       10  | 45:06.10 |  4:50.65 |    202960    |   224774
       11  | 49:57.00 |  4:30.23 |    224775    |   245047
       12  | 54:27.23 |  3:47.10 |    245048    |   262082
Track  1
     Filename C:\Documents and Settings\ph\Desktop\New Folder\Ketil Bjшrnstad - 1993 - Water Stories\01 - Glacial Reconstruction.wav
     Pre-gap length  0:00:02.44
     Peak level 96.6 %
     Track quality 100.0 %
     Test CRC F4F1BED9
     Copy CRC F4F1BED9
     Cannot be verified as accurate (confidence 11)  [CF5443D1], AccurateRip returned [83BBFA6F]
     Copy OK
Track  2
     Filename C:\Documents and Settings\ph\Desktop\New Folder\Ketil Bjшrnstad - 1993 - Water Stories\02 - Levels and Degrees.wav
     Pre-gap length  0:00:02.70
     Peak level 93.4 %
     Track quality 100.0 %
     Test CRC 0EA47581
     Copy CRC 0EA47581
     Cannot be verified as accurate (confidence 11)  [ACE06C1D], AccurateRip returned [41FB1734]
     Copy OK
Track  3
     Filename C:\Documents and Settings\ph\Desktop\New Folder\Ketil Bjшrnstad - 1993 - Water Stories\03 - Surface Movements.wav
     Pre-gap length  0:00:03.04
     Peak level 83.2 %
     Track quality 100.0 %
     Test CRC 5524D262
     Copy CRC 5524D262
     Cannot be verified as accurate (confidence 11)  [C8554ABE], AccurateRip returned [44C690A6]
     Copy OK
Track  4
     Filename C:\Documents and Settings\ph\Desktop\New Folder\Ketil Bjшrnstad - 1993 - Water Stories\04 - The View I.wav
     Pre-gap length  0:00:02.49
     Peak level 82.9 %
     Track quality 99.9 %
     Test CRC 1DC6BC67
     Copy CRC 1DC6BC67
     Cannot be verified as accurate (confidence 11)  [BBD5B4BF], AccurateRip returned [CEC22866]
     Copy OK
Track  5
     Filename C:\Documents and Settings\ph\Desktop\New Folder\Ketil Bjшrnstad - 1993 - Water Stories\05 - Between Memory and Presentiment.wav
     Pre-gap length  0:00:01.18
     Peak level 66.4 %
     Track quality 100.0 %
     Test CRC D9DCF138
     Copy CRC D9DCF138
     Cannot be verified as accurate (confidence 11)  [9104C51B], AccurateRip returned [7EC4ED9E]
     Copy OK
Track  6
     Filename C:\Documents and Settings\ph\Desktop\New Folder\Ketil Bjшrnstad - 1993 - Water Stories\06 - Ten Thousand Years Later.wav
     Pre-gap length  0:00:01.96
     Peak level 81.2 %
     Track quality 100.0 %
     Test CRC A77E862D
     Copy CRC A77E862D
     Cannot be verified as accurate (confidence 11)  [5DEA4F74], AccurateRip returned [2773E16E]
     Copy OK
Track  7
     Filename C:\Documents and Settings\ph\Desktop\New Folder\Ketil Bjшrnstad - 1993 - Water Stories\07 - Waterfall.wav
     Pre-gap length  0:00:01.70
     Peak level 81.4 %
     Track quality 100.0 %
     Test CRC B5D368A8
     Copy CRC B5D368A8
     Cannot be verified as accurate (confidence 11)  [856D90EA], AccurateRip returned [85DA94F6]
     Copy OK
Track  8
     Filename C:\Documents and Settings\ph\Desktop\New Folder\Ketil Bjшrnstad - 1993 - Water Stories\08 - Flotation and Surroundings.wav
     Pre-gap length  0:00:03.85
     Peak level 87.9 %
     Track quality 99.9 %
     Test CRC 6E746202
     Copy CRC 6E746202
     Cannot be verified as accurate (confidence 11)  [4FBA6477], AccurateRip returned [826979F7]
     Copy OK
Track  9
     Filename C:\Documents and Settings\ph\Desktop\New Folder\Ketil Bjшrnstad - 1993 - Water Stories\09 - Riverscape.wav
     Pre-gap length  0:00:03.33
     Peak level 62.0 %
     Track quality 100.0 %
     Test CRC 2A523C69
     Copy CRC 2A523C69
     Cannot be verified as accurate (confidence 11)  [1F324259], AccurateRip returned [15619DFB]
     Copy OK
Track 10
     Filename C:\Documents and Settings\ph\Desktop\New Folder\Ketil Bjшrnstad - 1993 - Water Stories\10 - Approaching the Sea.wav
     Pre-gap length  0:00:02.36
     Peak level 87.4 %
     Track quality 99.9 %
     Test CRC 9AA8DF6D
     Copy CRC 9AA8DF6D
     Cannot be verified as accurate (confidence 11)  [3A105ABF], AccurateRip returned [9301D466]
     Copy OK
Track 11
     Filename C:\Documents and Settings\ph\Desktop\New Folder\Ketil Bjшrnstad - 1993 - Water Stories\11 - The View II.wav
     Pre-gap length  0:00:02.06
     Peak level 79.1 %
     Track quality 99.9 %
     Test CRC 8E40F611
     Copy CRC 8E40F611
     Cannot be verified as accurate (confidence 11)  [86E493EC], AccurateRip returned [254A8464]
     Copy OK
Track 12
     Filename C:\Documents and Settings\ph\Desktop\New Folder\Ketil Bjшrnstad - 1993 - Water Stories\12 - History.wav
     Pre-gap length  0:00:02.17
     Peak level 64.4 %
     Track quality 99.9 %
     Test CRC 5DF89730
     Copy CRC 5DF89730
     Cannot be verified as accurate (confidence 11)  [44C66B94], AccurateRip returned [1F35E658]
     Copy OK
No tracks could be verified as accurate
You may have a different pressing from the one(s) in the database
No errors occurred
End of status report
 
 
cue
REM GENRE Jazz
REM DATE 1993
REM DISCID B70DA60C
REM COMMENT "ExactAudioCopy v0.99pb5"
CATALOG 0731451907623
FILE "01 - Glacial Reconstruction.wav" WAVE
  TRACK 01 AUDIO
    PREGAP 00:00:33
    INDEX 01 00:00:00
  TRACK 02 AUDIO
    INDEX 00 06:56:12
FILE "02 - Levels and Degrees.wav" WAVE
    INDEX 01 00:00:00
  TRACK 03 AUDIO
    INDEX 00 07:16:57
FILE "03 - Surface Movements.wav" WAVE
    INDEX 01 00:00:00
  TRACK 04 AUDIO
    INDEX 00 04:24:45
FILE "04 - The View I.wav" WAVE
    INDEX 01 00:00:00
  TRACK 05 AUDIO
    INDEX 00 05:17:19
FILE "05 - Between Memory and Presentiment.wav" WAVE
    INDEX 01 00:00:00
  TRACK 06 AUDIO
    INDEX 00 04:00:50
FILE "06 - Ten Thousand Years Later.wav" WAVE
    INDEX 01 00:00:00
  TRACK 07 AUDIO
    INDEX 00 07:08:15
FILE "07 - Waterfall.wav" WAVE
    INDEX 01 00:00:00
  TRACK 08 AUDIO
    INDEX 00 02:10:31
FILE "08 - Flotation and Surroundings.wav" WAVE
    INDEX 01 00:00:00
  TRACK 09 AUDIO
    INDEX 00 05:17:12
FILE "09 - Riverscape.wav" WAVE
    INDEX 01 00:00:00
  TRACK 10 AUDIO
    INDEX 00 02:11:63
FILE "10 - Approaching the Sea.wav" WAVE
    INDEX 01 00:00:00
  TRACK 11 AUDIO
    INDEX 00 04:48:60
FILE "11 - The View II.wav" WAVE
    INDEX 01 00:00:00
  TRACK 12 AUDIO
    INDEX 00 04:28:10
FILE "12 - History.wav" WAVE
    INDEX 01 00:00:00
 
 
[1995] The Sea (with David Darling, Terje Rypdal, Jon Christensen) {ECM 1545}
Аудио кодек: FLAC
Тип рипа: tracks+.cue + Complete Artwork
Источник (релизер): waffles
Продолжительность: 01:14:20
Треклист:
1. The Sea I
2. The Sea II
3. The Sea III
4. The Sea IV
5. The Sea V
6. The Sea VI
7. The Sea VII
8. The Sea VIII
9. The Sea IX
10. The Sea X
11. The Sea XI
12. The Sea XII
Cello – David Darling
Drums – Jon Christensen
Engineer – Jan Erik Kongshaug
Guitar – Terje Rypdal
Layout – Barbara Wojirsch
Photography – Rolf M. Aagaard
Piano, Composed By – Ketil Bjørnstad
Producer – Manfred Eicher
 
 
 
log
Exact Audio Copy V1.0 beta 1 from 15. November 2010
EAC extraction logfile from 22. January 2011, 17:17
Ketil Bjørnstad, David Darling, Terje Rypdal, Jon Christensen / The Sea (1995)
Used drive  : Optiarc DVD RW AD-7200A   Adapter: 0  ID: 0
Read mode               : Secure
Utilize accurate stream : Yes
Defeat audio cache      : Yes
Make use of C2 pointers : No
Read offset correction                      : 48
Overread into Lead-In and Lead-Out          : No
Fill up missing offset samples with silence : Yes
Delete leading and trailing silent blocks   : No
Null samples used in CRC calculations       : Yes
Used interface                              : Native Win32 interface for Win NT & 2000
Gap handling                                : Appended to previous track
Used output format              : User Defined Encoder
Selected bitrate                : 1024 kBit/s
Quality                         : High
Add ID3 tag                     : No
Command line compressor         : C:\bin\Exact Audio Copy\Flac\flac.exe
Additional command line options : -V -8 -T "artist=%a" -T "title=%t" -T "album=%g" -T "date=%y" -T "tracknumber=%n" -T "genre=%m" %s
TOC of the extracted CD
     Track |   Start  |  Length  | Start sector | End sector
    ---------------------------------------------------------
        1  |  0:00.32 |  7:56.38 |        32    |    35769
        2  |  7:56.70 |  7:31.57 |     35770    |    69651
        3  | 15:28.52 |  4:42.20 |     69652    |    90821
        4  | 20:10.72 |  8:50.10 |     90822    |   130581
        5  | 29:01.07 |  6:42.10 |    130582    |   160741
        6  | 35:43.17 |  9:20.28 |    160742    |   202769
        7  | 45:03.45 |  5:19.35 |    202770    |   226729
        8  | 50:23.05 |  2:42.72 |    226730    |   238951
        9  | 53:06.02 |  5:51.20 |    238952    |   265296
       10  | 58:57.22 |  4:34.43 |    265297    |   285889
       11  | 63:31.65 |  7:34.12 |    285890    |   319951
       12  | 71:06.02 |  3:39.30 |    319952    |   336406
Track  1
     Filename G:\B\Bjornstad, Ketil & Darling, David & Rypdal, Terje & Christensen, Jon\1995 -- The Sea\01. Ketil Bjørnstad, David Darling, Terje Rypdal, Jon Christensen - The Sea I.wav
     Pre-gap length  0:00:02.32
     Peak level 78.2 %
     Extraction speed 2.7 X
     Track quality 99.9 %
     Test CRC C87AC1EA
     Copy CRC C87AC1EA
     Accurately ripped (confidence 7)  [E2D66079]
     Copy OK
Track  2
     Filename G:\B\Bjornstad, Ketil & Darling, David & Rypdal, Terje & Christensen, Jon\1995 -- The Sea\02. Ketil Bjørnstad, David Darling, Terje Rypdal, Jon Christensen - The Sea II.wav
     Pre-gap length  0:00:01.13
     Peak level 89.6 %
     Extraction speed 3.3 X
     Track quality 100.0 %
     Test CRC D4B741FA
     Copy CRC D4B741FA
     Accurately ripped (confidence 7)  [66CB5A6F]
     Copy OK
Track  3
     Filename G:\B\Bjornstad, Ketil & Darling, David & Rypdal, Terje & Christensen, Jon\1995 -- The Sea\03. Ketil Bjørnstad, David Darling, Terje Rypdal, Jon Christensen - The Sea III.wav
     Pre-gap length  0:00:03.00
     Peak level 53.7 %
     Extraction speed 3.1 X
     Track quality 99.9 %
     Test CRC D958199D
     Copy CRC D958199D
     Accurately ripped (confidence 7)  [51CAA604]
     Copy OK
Track  4
     Filename G:\B\Bjornstad, Ketil & Darling, David & Rypdal, Terje & Christensen, Jon\1995 -- The Sea\04. Ketil Bjørnstad, David Darling, Terje Rypdal, Jon Christensen - The Sea IV.wav
     Pre-gap length  0:00:01.37
     Peak level 92.2 %
     Extraction speed 4.0 X
     Track quality 100.0 %
     Test CRC E79D8D23
     Copy CRC E79D8D23
     Accurately ripped (confidence 7)  [A2A28951]
     Copy OK
Track  5
     Filename G:\B\Bjornstad, Ketil & Darling, David & Rypdal, Terje & Christensen, Jon\1995 -- The Sea\05. Ketil Bjørnstad, David Darling, Terje Rypdal, Jon Christensen - The Sea V.wav
     Pre-gap length  0:00:00.50
     Peak level 87.4 %
     Extraction speed 3.9 X
     Track quality 99.9 %
     Test CRC 4C9E2F14
     Copy CRC 4C9E2F14
     Accurately ripped (confidence 7)  [185A0350]
     Copy OK
Track  6
     Filename G:\B\Bjornstad, Ketil & Darling, David & Rypdal, Terje & Christensen, Jon\1995 -- The Sea\06. Ketil Bjørnstad, David Darling, Terje Rypdal, Jon Christensen - The Sea VI.wav
     Pre-gap length  0:00:02.60
     Peak level 91.0 %
     Extraction speed 4.7 X
     Track quality 100.0 %
     Test CRC 2A89DF5F
     Copy CRC 2A89DF5F
     Accurately ripped (confidence 7)  [334E97AC]
     Copy OK
Track  7
     Filename G:\B\Bjornstad, Ketil & Darling, David & Rypdal, Terje & Christensen, Jon\1995 -- The Sea\07. Ketil Bjørnstad, David Darling, Terje Rypdal, Jon Christensen - The Sea VII.wav
     Pre-gap length  0:00:01.63
     Peak level 80.4 %
     Extraction speed 4.3 X
     Track quality 99.9 %
     Test CRC 57654033
     Copy CRC 57654033
     Accurately ripped (confidence 7)  [3BC2CE84]
     Copy OK
Track  8
     Filename G:\B\Bjornstad, Ketil & Darling, David & Rypdal, Terje & Christensen, Jon\1995 -- The Sea\08. Ketil Bjørnstad, David Darling, Terje Rypdal, Jon Christensen - The Sea VIII.wav
     Pre-gap length  0:00:03.53
     Peak level 64.2 %
     Extraction speed 4.4 X
     Track quality 100.0 %
     Test CRC 437FE5C6
     Copy CRC 437FE5C6
     Accurately ripped (confidence 7)  [27A51D16]
     Copy OK
Track  9
     Filename G:\B\Bjornstad, Ketil & Darling, David & Rypdal, Terje & Christensen, Jon\1995 -- The Sea\09. Ketil Bjørnstad, David Darling, Terje Rypdal, Jon Christensen - The Sea IX.wav
     Peak level 74.4 %
     Extraction speed 5.0 X
     Track quality 100.0 %
     Test CRC 325F35D9
     Copy CRC 325F35D9
     Accurately ripped (confidence 7)  [9DEDE9A5]
     Copy OK
Track 10
     Filename G:\B\Bjornstad, Ketil & Darling, David & Rypdal, Terje & Christensen, Jon\1995 -- The Sea\10. Ketil Bjørnstad, David Darling, Terje Rypdal, Jon Christensen - The Sea X.wav
     Peak level 86.2 %
     Extraction speed 5.1 X
     Track quality 100.0 %
     Test CRC 2A0EE5AD
     Copy CRC 2A0EE5AD
     Accurately ripped (confidence 7)  [D4ABC47E]
     Copy OK
Track 11
     Filename G:\B\Bjornstad, Ketil & Darling, David & Rypdal, Terje & Christensen, Jon\1995 -- The Sea\11. Ketil Bjørnstad, David Darling, Terje Rypdal, Jon Christensen - The Sea XI.wav
     Pre-gap length  0:00:02.48
     Peak level 91.3 %
     Extraction speed 5.6 X
     Track quality 100.0 %
     Test CRC C9D755D0
     Copy CRC C9D755D0
     Accurately ripped (confidence 7)  [DA7F4DA8]
     Copy OK
Track 12
     Filename G:\B\Bjornstad, Ketil & Darling, David & Rypdal, Terje & Christensen, Jon\1995 -- The Sea\12. Ketil Bjørnstad, David Darling, Terje Rypdal, Jon Christensen - The Sea XII.wav
     Pre-gap length  0:00:07.15
     Peak level 34.8 %
     Extraction speed 5.3 X
     Track quality 100.0 %
     Test CRC BEED081E
     Copy CRC BEED081E
     Accurately ripped (confidence 7)  [7C0D2563]
     Copy OK
All tracks accurately ripped
No errors occurred
End of status report
==== Log checksum 88FB48F8F562BF070E31404F4B74415A49A6F517FD3B73369FBE56068810BD28 ====
 
 
cue
REM DATE 1995
REM DISCID A511850C
REM COMMENT "ExactAudioCopy v1.0b1"
CATALOG 0731452171825
PERFORMER "Ketil Bjornstad, David Darling, Terje Rypdal, Jon Christensen"
TITLE "The Sea (1995)"
FILE "01. Ketil Bjornstad, David Darling, Terje Rypdal, Jon Christensen - The Sea I.wav" WAVE
  TRACK 01 AUDIO
    TITLE "The Sea I"
    PERFORMER "Ketil Bjornstad, David Darling, Terje Rypdal, Jon Christensen"
    ISRC DEB339454501
    PREGAP 00:00:32
    INDEX 01 00:00:00
  TRACK 02 AUDIO
    TITLE "The Sea II"
    PERFORMER "Ketil Bjornstad, David Darling, Terje Rypdal, Jon Christensen"
    ISRC DEB339454502
    INDEX 00 07:55:25
FILE "02. Ketil Bjornstad, David Darling, Terje Rypdal, Jon Christensen - The Sea II.wav" WAVE
    INDEX 01 00:00:00
  TRACK 03 AUDIO
    TITLE "The Sea III"
    PERFORMER "Ketil Bjornstad, David Darling, Terje Rypdal, Jon Christensen"
    ISRC DEB339454503
    INDEX 00 07:28:57
FILE "03. Ketil Bjornstad, David Darling, Terje Rypdal, Jon Christensen - The Sea III.wav" WAVE
    INDEX 01 00:00:00
  TRACK 04 AUDIO
    TITLE "The Sea IV"
    PERFORMER "Ketil Bjornstad, David Darling, Terje Rypdal, Jon Christensen"
    ISRC DEB339454504
    INDEX 00 04:40:58
FILE "04. Ketil Bjornstad, David Darling, Terje Rypdal, Jon Christensen - The Sea IV.wav" WAVE
    INDEX 01 00:00:00
  TRACK 05 AUDIO
    TITLE "The Sea V"
    PERFORMER "Ketil Bjornstad, David Darling, Terje Rypdal, Jon Christensen"
    ISRC DEB339454505
    INDEX 00 08:49:35
FILE "05. Ketil Bjornstad, David Darling, Terje Rypdal, Jon Christensen - The Sea V.wav" WAVE
    INDEX 01 00:00:00
  TRACK 06 AUDIO
    TITLE "The Sea VI"
    PERFORMER "Ketil Bjornstad, David Darling, Terje Rypdal, Jon Christensen"
    ISRC DEB339454506
    INDEX 00 06:39:25
FILE "06. Ketil Bjornstad, David Darling, Terje Rypdal, Jon Christensen - The Sea VI.wav" WAVE
    INDEX 01 00:00:00
  TRACK 07 AUDIO
    TITLE "The Sea VII"
    PERFORMER "Ketil Bjornstad, David Darling, Terje Rypdal, Jon Christensen"
    ISRC DEB339454507
    INDEX 00 09:18:40
FILE "07. Ketil Bjornstad, David Darling, Terje Rypdal, Jon Christensen - The Sea VII.wav" WAVE
    INDEX 01 00:00:00
  TRACK 08 AUDIO
    TITLE "The Sea VIII"
    PERFORMER "Ketil Bjornstad, David Darling, Terje Rypdal, Jon Christensen"
    ISRC DEB339454508
    INDEX 00 05:15:57
FILE "08. Ketil Bjornstad, David Darling, Terje Rypdal, Jon Christensen - The Sea VIII.wav" WAVE
    INDEX 01 00:00:00
FILE "09. Ketil Bjornstad, David Darling, Terje Rypdal, Jon Christensen - The Sea IX.wav" WAVE
  TRACK 09 AUDIO
    TITLE "The Sea IX"
    PERFORMER "Ketil Bjornstad, David Darling, Terje Rypdal, Jon Christensen"
    ISRC DEB339454509
    INDEX 01 00:00:00
FILE "10. Ketil Bjornstad, David Darling, Terje Rypdal, Jon Christensen - The Sea X.wav" WAVE
  TRACK 10 AUDIO
    TITLE "The Sea X"
    PERFORMER "Ketil Bjornstad, David Darling, Terje Rypdal, Jon Christensen"
    ISRC DEB339454510
    INDEX 01 00:00:00
  TRACK 11 AUDIO
    TITLE "The Sea XI"
    PERFORMER "Ketil Bjornstad, David Darling, Terje Rypdal, Jon Christensen"
    ISRC DEB339454511
    INDEX 00 04:31:70
FILE "11. Ketil Bjornstad, David Darling, Terje Rypdal, Jon Christensen - The Sea XI.wav" WAVE
    INDEX 01 00:00:00
  TRACK 12 AUDIO
    TITLE "The Sea XII"
    PERFORMER "Ketil Bjornstad, David Darling, Terje Rypdal, Jon Christensen"
    ISRC DEB339454512
    INDEX 00 07:26:72
FILE "12. Ketil Bjornstad, David Darling, Terje Rypdal, Jon Christensen - The Sea XII.wav" WAVE
    INDEX 01 00:00:00
 
 
[1997] The River (with David Darling) {ECM 1593}
Аудио кодек: FLAC
Тип рипа: tracks+.cue + Complete Artwork
Продолжительность: 00:55:08
Источник (релизер): время умалчивает
Треклист:
1. The River: I
2. The River: II
3. The River: III
4. The River: IV
5. The River: V
6. The River: VI
7. The River: VII
8. The River: VIII
9. The River: IX
10. The River: X
11. The River: XI
12. The River: XII
Cello – David Darling
Composed By – David Darling (tracks: 2, 4 to 11), Ketil Bjørnstad (tracks: 2, 4 to 11)
Engineer – Jan Erik Kongshaug
Layout – Detlev Riller
Liner Notes – K.B.*
Photography – Pål Hoff
Piano – Ketil Bjørnstad
Producer – Manfred Eicher
 
 
 
log
EAC extraction logfile from 9. July 2005, 15:07 for CD
Ketil Bjornstad & David Darling / The River
Used drive  : PLEXTOR CD-R   PREMIUM   Adapter: 1  ID: 0
Read mode   : Secure with NO C2, accurate stream, disable cache
Read offset correction : 30
Overread into Lead-In and Lead-Out : Yes
Used output format : E:\Programmi\Exact Audio Copy 0.95\Encoders\flac.exe   (User Defined Encoder)
                     224 kBit/s
                     Additional command line options : -8 -V -T "artist=%a" -T "title=%t" -T "album=%g" -T "date=%y" -T "tracknumber=%n" -T "genre=%m" -T "comment=Exact Audio Copy 0.95 pb5 Secure Mode / FLAC q8 v. 1.1.2" %s
Other options      :
    Fill up missing offset samples with silence : No
    Delete leading and trailing silent blocks : No
    Installed external ASPI interface
Track  1
     Filename D:\Seed\Ketil Bjornstad & David Darling - The River (1997) [FLAC] {ECM}\01 - The river I.wav
     Pre-gap length  0:00:02.00
     Peak level 50.7 %
     Track quality 100.0 %
     Test CRC A58FF14E
     Copy CRC A58FF14E
     Copy OK
Track  2
     Filename D:\Seed\Ketil Bjornstad & David Darling - The River (1997) [FLAC] {ECM}\02 - The river II.wav
     Pre-gap length  0:00:06.46
     Peak level 87.8 %
     Track quality 100.0 %
     Test CRC 7458D68F
     Copy CRC 7458D68F
     Copy OK
Track  3
     Filename D:\Seed\Ketil Bjornstad & David Darling - The River (1997) [FLAC] {ECM}\03 - The river III.wav
     Pre-gap length  0:00:01.50
     Peak level 64.8 %
     Track quality 99.9 %
     Test CRC 38E28D34
     Copy CRC 38E28D34
     Copy OK
Track  4
     Filename D:\Seed\Ketil Bjornstad & David Darling - The River (1997) [FLAC]  {ECM}\04 - The river IV.wav
     Pre-gap length  0:00:02.93
     Peak level 90.5 %
     Track quality 100.0 %
     Test CRC 39530CE6
     Copy CRC 39530CE6
     Copy OK
Track  5
     Filename D:\Seed\Ketil Bjornstad & David Darling - The River (1997) [FLAC] {ECM}\05 - The river V.wav
     Pre-gap length  0:00:01.40
     Peak level 81.1 %
     Track quality 100.0 %
     Test CRC 0FB36753
     Copy CRC 0FB36753
     Copy OK
Track  6
     Filename D:\Seed\Ketil Bjornstad & David Darling - The River (1997) [FLAC] {ECM}\06 - The river VI.wav
     Pre-gap length  0:00:01.29
     Peak level 56.3 %
     Track quality 100.0 %
     Test CRC 4D664523
     Copy CRC 4D664523
     Copy OK
Track  7
     Filename D:\Seed\Ketil Bjornstad & David Darling - The River (1997) [FLAC] {ECM}\07 - The river VII.wav
     Pre-gap length  0:00:00.86
     Peak level 71.0 %
     Track quality 100.0 %
     Test CRC FA244A9C
     Copy CRC FA244A9C
     Copy OK
Track  8
     Filename D:\Seed\Ketil Bjornstad & David Darling - The River (1997) [FLAC] {ECM}\08 - The river VIII.wav
     Pre-gap length  0:00:04.30
     Peak level 77.5 %
     Track quality 100.0 %
     Test CRC 55351E1A
     Copy CRC 55351E1A
     Copy OK
Track  9
     Filename D:\Seed\Ketil Bjornstad & David Darling - The River (1997) [FLAC] {ECM}\09 - The river IX.wav
     Pre-gap length  0:00:01.56
     Peak level 95.9 %
     Track quality 100.0 %
     Test CRC DEBA4E46
     Copy CRC DEBA4E46
     Copy OK
Track 10
     Filename D:\Seed\Ketil Bjornstad & David Darling - The River (1997) [FLAC] {ECM}\10 - The river X.wav
     Pre-gap length  0:00:03.13
     Peak level 85.4 %
     Track quality 100.0 %
     Test CRC 2D8BB763
     Copy CRC 2D8BB763
     Copy OK
Track 11
     Filename D:\Seed\Ketil Bjornstad & David Darling - The River (1997) [FLAC] {ECM}\11 - The river XI.wav
     Pre-gap length  0:00:02.90
     Peak level 54.4 %
     Track quality 100.0 %
     Test CRC 16D1D06D
     Copy CRC 16D1D06D
     Copy OK
Track 12
     Filename D:\Seed\Ketil Bjornstad & David Darling - The River (1997) [FLAC] {ECM}\12 - The river XII.wav
     Pre-gap length  0:00:02.13
     Peak level 46.5 %
     Track quality 100.0 %
     Test CRC 1DDA36E2
     Copy CRC 1DDA36E2
     Copy OK
No errors occured
End of status report
 
 
cue
PERFORMER "Ketil Bjшrnstad & David Darling"
TITLE "The River"
FILE "01 - The river I.flac" WAVE
  TRACK 01 AUDIO
    TITLE "The river I"
    PERFORMER "Ketil Bjшrnstad & David Darling"
    INDEX 01 00:00:00
  TRACK 02 AUDIO
    TITLE "The river II"
    PERFORMER "Ketil Bjшrnstad & David Darling"
    INDEX 00 03:11:47
FILE "02 - The river II.flac" WAVE
    INDEX 01 00:00:00
  TRACK 03 AUDIO
    TITLE "The river III"
    PERFORMER "Ketil Bjшrnstad & David Darling"
    INDEX 00 05:46:50
FILE "03 - The river III.flac" WAVE
    INDEX 01 00:00:00
  TRACK 04 AUDIO
    TITLE "The river IV"
    PERFORMER "Ketil Bjшrnstad & David Darling"
    INDEX 00 02:30:60
FILE "04 - The river IV.flac" WAVE
    INDEX 01 00:00:00
  TRACK 05 AUDIO
    TITLE "The river V"
    PERFORMER "Ketil Bjшrnstad & David Darling"
    INDEX 00 05:19:20
FILE "05 - The river V.flac" WAVE
    INDEX 01 00:00:00
  TRACK 06 AUDIO
    TITLE "The river VI"
    PERFORMER "Ketil Bjшrnstad & David Darling"
    INDEX 00 05:38:00
FILE "06 - The river VI.flac" WAVE
    INDEX 01 00:00:00
  TRACK 07 AUDIO
    TITLE "The river VII"
    PERFORMER "Ketil Bjшrnstad & David Darling"
    INDEX 00 05:18:40
FILE "07 - The river VII.flac" WAVE
    INDEX 01 00:00:00
  TRACK 08 AUDIO
    TITLE "The river VIII"
    PERFORMER "Ketil Bjшrnstad & David Darling"
    INDEX 00 07:37:70
FILE "08 - The river VIII.flac" WAVE
    INDEX 01 00:00:00
  TRACK 09 AUDIO
    TITLE "The river IX"
    PERFORMER "Ketil Bjшrnstad & David Darling"
    INDEX 00 04:57:35
FILE "09 - The river IX.flac" WAVE
    INDEX 01 00:00:00
  TRACK 10 AUDIO
    TITLE "The river X"
    PERFORMER "Ketil Bjшrnstad & David Darling"
    INDEX 00 06:26:73
FILE "10 - The river X.flac" WAVE
    INDEX 01 00:00:00
  TRACK 11 AUDIO
    TITLE "The river XI"
    PERFORMER "Ketil Bjшrnstad & David Darling"
    INDEX 00 03:23:67
FILE "11 - The river XI.flac" WAVE
    INDEX 01 00:00:00
  TRACK 12 AUDIO
    TITLE "The river XII"
    PERFORMER "Ketil Bjшrnstad & David Darling"
    INDEX 00 03:14:50
FILE "12 - The river XII.flac" WAVE
    INDEX 01 00:00:00
 
 
[1998] The Sea II (with David Darling, Terje Rypdal, Jon Christensen) [FLAC] {ECM 1633}
Аудио кодек: FLAC
Тип рипа: tracks+.cue + Complete Artwork
Продолжительность: 00:48:07
Источник (релизер): [whatcd]
Треклист:
01. Laila
02. Outward Bound
03. Brand
04. The Mother
05. Song For A Planet
06. Consequences
07. Agnes
08. Mime
09. December
10. South
Cello – David Darling
Composed By – Ketil Bjørnstad (tracks: 1 to 5, 7 to 10)
Design – Sascha Kleis
Drums – Jon Christensen
Engineer – Jan Erik Kongshaug
Guitar [Guitars] – Terje Rypdal
Photography [Cover] – Jim Bengston
Photography [Liner] – Jan Jedlička
Piano – Ketil Bjørnstad
Producer – Manfred Eicher
 
 
 
log
Exact Audio Copy V0.99 prebeta 4 from 23. January 2008
EAC extraction logfile from 22. August 2009, 1:51
Bjornstad, Darling, Rypdal & Christensen / The Sea II
Used drive  : Optiarc DVD RW AD-7200A   Adapter: 3  ID: 1
Read mode               : Secure
Utilize accurate stream : Yes
Defeat audio cache      : Yes
Make use of C2 pointers : No
Read offset correction                      : 48
Overread into Lead-In and Lead-Out          : No
Fill up missing offset samples with silence : Yes
Delete leading and trailing silent blocks   : No
Null samples used in CRC calculations       : Yes
Used interface                              : Installed external ASPI interface
Gap handling                                : Appended to previous track
Used output format : Internal WAV Routines
Sample format      : 44.100 Hz; 16 Bit; Stereo
TOC of the extracted CD
     Track |   Start  |  Length  | Start sector | End sector
    ---------------------------------------------------------
        1  |  0:00.00 |  5:29.27 |         0    |    24701
        2  |  5:29.27 |  4:52.68 |     24702    |    46669
        3  | 10:22.20 |  5:46.20 |     46670    |    72639
        4  | 16:08.40 |  4:26.62 |     72640    |    92651
        5  | 20:35.27 |  4:04.20 |     92652    |   110971
        6  | 24:39.47 |  6:30.28 |    110972    |   140249
        7  | 31:10.00 |  4:27.07 |    140250    |   160281
        8  | 35:37.07 |  4:22.43 |    160282    |   179974
        9  | 39:59.50 |  3:19.20 |    179975    |   194919
       10  | 43:18.70 |  4:49.05 |    194920    |   216599
Track  1
     Filename X:\Bjornstad, Darling, Rypdal & Christensen - The Sea II\01 – Laila.wav
     Pre-gap length  0:00:02.00
     Peak level 97.3 %
     Track quality 100.0 %
     Test CRC E47ACCDF
     Copy CRC E47ACCDF
     Cannot be verified as accurate (confidence 18)  [0DB86532], AccurateRip returned [BAD3B8DC]
     Copy OK
Track  2
     Filename X:\Bjornstad, Darling, Rypdal & Christensen - The Sea II\02 – Outward Bound.wav
     Peak level 95.2 %
     Track quality 100.0 %
     Test CRC A8CC80D9
     Copy CRC A8CC80D9
     Cannot be verified as accurate (confidence 18)  [36F12745], AccurateRip returned [2A399B5E]
     Copy OK
Track  3
     Filename X:\Bjornstad, Darling, Rypdal & Christensen - The Sea II\03 – Brand.wav
     Peak level 94.3 %
     Track quality 100.0 %
     Test CRC F9BC6BF0
     Copy CRC F9BC6BF0
     Cannot be verified as accurate (confidence 18)  [B0D541CD], AccurateRip returned [3BC667AC]
     Copy OK
Track  4
     Filename X:\Bjornstad, Darling, Rypdal & Christensen - The Sea II\04 – The Mother.wav
     Peak level 100.0 %
     Track quality 100.0 %
     Test CRC E07A234B
     Copy CRC E07A234B
     Cannot be verified as accurate (confidence 18)  [A28257D8], AccurateRip returned [16709EAD]
     Copy OK
Track  5
     Filename X:\Bjornstad, Darling, Rypdal & Christensen - The Sea II\05 – Song For A Planet.wav
     Peak level 59.0 %
     Track quality 100.0 %
     Test CRC 7AB8AE2E
     Copy CRC 7AB8AE2E
     Cannot be verified as accurate (confidence 18)  [BC76FA16], AccurateRip returned [10F5F0D3]
     Copy OK
Track  6
     Filename X:\Bjornstad, Darling, Rypdal & Christensen - The Sea II\06 – Consequences.wav
     Peak level 99.8 %
     Track quality 100.0 %
     Test CRC 43B7B630
     Copy CRC 43B7B630
     Cannot be verified as accurate (confidence 18)  [C643FE62], AccurateRip returned [21AA08C3]
     Copy OK
Track  7
     Filename X:\Bjornstad, Darling, Rypdal & Christensen - The Sea II\07 – Agnes.wav
     Peak level 42.6 %
     Track quality 100.0 %
     Test CRC B337B7CB
     Copy CRC B337B7CB
     Cannot be verified as accurate (confidence 18)  [26253044], AccurateRip returned [EA0AD95C]
     Copy OK
Track  8
     Filename X:\Bjornstad, Darling, Rypdal & Christensen - The Sea II\08 – Mime.wav
     Peak level 100.0 %
     Track quality 100.0 %
     Test CRC 41F280A7
     Copy CRC 41F280A7
     Cannot be verified as accurate (confidence 18)  [F66FD253], AccurateRip returned [66E2FF8F]
     Copy OK
Track  9
     Filename X:\Bjornstad, Darling, Rypdal & Christensen - The Sea II\09 – December.wav
     Peak level 47.7 %
     Track quality 100.0 %
     Test CRC 2FB98FBC
     Copy CRC 2FB98FBC
     Cannot be verified as accurate (confidence 18)  [A364A583], AccurateRip returned [2FB12831]
     Copy OK
Track 10
     Filename X:\Bjornstad, Darling, Rypdal & Christensen - The Sea II\10 – South.wav
     Peak level 99.7 %
     Track quality 100.0 %
     Test CRC 3F281C4B
     Copy CRC 3F281C4B
     Cannot be verified as accurate (confidence 18)  [B39E6645], AccurateRip returned [DCFB8077]
     Copy OK
No tracks could be verified as accurate
You may have a different pressing from the one(s) in the database
No errors occurred
End of status report
 
 
cue
REM GENRE Jazz
REM DATE 1998
REM DISCID 700B480A
REM COMMENT "ExactAudioCopy v0.99pb4"
PERFORMER "Bjornstad, Darling, Rypdal & Christensen"
TITLE "The Sea II"
FILE "01 – Laila.wav" WAVE
  TRACK 01 AUDIO
    TITLE "Laila"
    PERFORMER "Bjornstad, Darling, Rypdal & Christensen"
    INDEX 01 00:00:00
FILE "02 – Outward Bound.wav" WAVE
  TRACK 02 AUDIO
    TITLE "Outward Bound"
    PERFORMER "Bjornstad, Darling, Rypdal & Christensen"
    INDEX 01 00:00:00
FILE "03 – Brand.wav" WAVE
  TRACK 03 AUDIO
    TITLE "Brand"
    PERFORMER "Bjornstad, Darling, Rypdal & Christensen"
    INDEX 01 00:00:00
FILE "04 – The Mother.wav" WAVE
  TRACK 04 AUDIO
    TITLE "The Mother"
    PERFORMER "Bjornstad, Darling, Rypdal & Christensen"
    INDEX 01 00:00:00
FILE "05 – Song For A Planet.wav" WAVE
  TRACK 05 AUDIO
    TITLE "Song For A Planet"
    PERFORMER "Bjornstad, Darling, Rypdal & Christensen"
    INDEX 01 00:00:00
FILE "06 – Consequences.wav" WAVE
  TRACK 06 AUDIO
    TITLE "Consequences"
    PERFORMER "Bjornstad, Darling, Rypdal & Christensen"
    INDEX 01 00:00:00
FILE "07 – Agnes.wav" WAVE
  TRACK 07 AUDIO
    TITLE "Agnes"
    PERFORMER "Bjornstad, Darling, Rypdal & Christensen"
    INDEX 01 00:00:00
FILE "08 – Mime.wav" WAVE
  TRACK 08 AUDIO
    TITLE "Mime"
    PERFORMER "Bjornstad, Darling, Rypdal & Christensen"
    INDEX 01 00:00:00
FILE "09 – December.wav" WAVE
  TRACK 09 AUDIO
    TITLE "December"
    PERFORMER "Bjornstad, Darling, Rypdal & Christensen"
    INDEX 01 00:00:00
FILE "10 – South.wav" WAVE
  TRACK 10 AUDIO
    TITLE "South"
    PERFORMER "Bjornstad, Darling, Rypdal & Christensen"
    INDEX 01 00:00:00
 
 
[2000] Epigraphs (with David Darling) {ECM 1684}
Аудио кодек: FLAC
Тип рипа: tracks+.cue+ Complete Artwork
Битрейт аудио: lossless
Продолжительность: 00:56:51
Источник (релизер): FlacMonkey
Трэклист:
01. Epigraph No. 1 (Bjornstad) 3:04
02. Upland (Bjornstad) 4:04
03. Wakening (Bjornstad) 4:10
04. Epigraph No. 1, Var.1 (Bjornstad) 1:39
05. Pavane (Byrd) 3:39
06. Fantasia (Gibbons) 1:59
07. Epigraph No. 1, Var.2 (Bjornstad) 2:20
08. The Guest (Bjornstad) 2:41
09. After Celan (Bjornstad) 3:46
10. Song for TKJD (Darling) 6:24
11. Silent Dream (Darling) 4:41
12. The Lake (Bjornstad) 4:11
13. Gothic (Bjornstad) 4:07
14. Epigraph No. 1, Var.3 (Bjornstad) 1:28
15. Le Jour S'Endort (Dufay) 3:44
16. Factus Est Repente (Aichinger) 4:54
Музыканты играют вариации на William Byrd, Orlando Gibbons, Guillaume Dufay, and Gregor Aichinger, саранжированные дуэтом и свои композиции.
Записан в сентябре 1998
Ketil Bjørnstad - piano
David Darling - cello
 
 
All About Jazz Review By Glenn Astarita
Pianist Ketil Bjornstad and cellist David Darling have been collaborating for quite awhile, namely within the group, "The Sea" yet their duet performances on the 1996 CD, The River offered listeners an enticing array of intersecting themes, sublime melodies and astute yet altogether thought-provoking interplay! With their latest effort, Epigraphs Darling and Bjornstad continue to produce somber, harmonious and imbued passages amid the often austere dialogue and introspective musings.
Essentially, the music presented here tends to mirror the now infamous - "ECM" aura which generally consists of enhanced reverb, some echo and sonic characteristics that could suggest or instill the listener with a distinct sense of inner sanctification or bliss. The piece titled "Song For TKJD", might easily serve as the soundtrack for some sort of serious-minded documentary film as Darling caresses his cello along with Bjornstad's pensive overtones and dainty accents. Here and throughout, the musicians often pursue brief statements and gradually shifting crosscurrents in chamber-esque fashion, while the overall tone and impetus represents a potpourri of pastoral motifs, vivid soundscapes and comforting sentiments. And along with the shadowy colors and cavernous implications, Bjornstad and Darling unveil their respective souls as they perform these rhapsodic pieces with quiet fire and endearing persuasion.
* * * 1/2 (out of * * * * *)
Style: Fringes of Jazz
 
 
 
log
Exact Audio Copy V0.99 prebeta 4 from 23. January 2008
EAC extraction logfile from 4. October 2009, 11:47
Ketil Bjoernstad, David Darling / Epigraphs
Used drive  : PLEXTOR CD-ROM PX-40TS   Adapter: 2  ID: 3
Read mode               : Secure
Utilize accurate stream : Yes
Defeat audio cache      : Yes
Make use of C2 pointers : No
Read offset correction                      : 676
Overread into Lead-In and Lead-Out          : No
Fill up missing offset samples with silence : Yes
Delete leading and trailing silent blocks   : No
Null samples used in CRC calculations       : Yes
Used interface                              : Installed external ASPI interface
Gap handling                                : Appended to previous track
Used output format              : User Defined Encoder
Selected bitrate                : 128 kBit/s
Quality                         : High
Add ID3 tag                     : No
Command line compressor         : C:\Program Files\FLAC\flac.exe
Additional command line options : -8 -V -T "ARTIST=%a" -T "TITLE=%t" -T "ALBUM=%g" -T "DATE=%y" -T "TRACKNUMBER=%n" -T "TOTALTRACKS=%x" -T "GENRE=%m" -T "ALBUMARTIST=%v" -T "ALBUM ARTIST=%v" -T "COMMENT=EAC V0.99 prebeta 4, Secure Mode, Test & Copy, Accurat
TOC of the extracted CD
     Track |   Start  |  Length  | Start sector | End sector
    ---------------------------------------------------------
        1  |  0:00.00 |  3:04.62 |         0    |    13861
        2  |  3:04.62 |  4:04.03 |     13862    |    32164
        3  |  7:08.65 |  4:10.10 |     32165    |    50924
        4  | 11:19.00 |  1:39.07 |     50925    |    58356
        5  | 12:58.07 |  3:39.35 |     58357    |    74816
        6  | 16:37.42 |  1:59.25 |     74817    |    83766
        7  | 18:36.67 |  2:20.25 |     83767    |    94291
        8  | 20:57.17 |  2:41.10 |     94292    |   106376
        9  | 23:38.27 |  3:46.10 |    106377    |   123336
       10  | 27:24.37 |  6:24.10 |    123337    |   152146
       11  | 33:48.47 |  4:41.13 |    152147    |   173234
       12  | 38:29.60 |  4:11.67 |    173235    |   192126
       13  | 42:41.52 |  4:07.50 |    192127    |   210701
       14  | 46:49.27 |  1:28.25 |    210702    |   217326
       15  | 48:17.52 |  3:44.00 |    217327    |   234126
       16  | 52:01.52 |  4:54.05 |    234127    |   256181
Track  1
     Filename H:\DAE\01 - Epigraph No.1.wav
     Pre-gap length  0:00:02.00
     Peak level 58.8 %
     Track quality 100.0 %
     Test CRC 052B6DAB
     Copy CRC 052B6DAB
     Accurately ripped (confidence 13)  [77979179]
     Copy OK
Track  2
     Filename H:\DAE\02 - Upland.wav
     Pre-gap length  0:00:02.96
     Peak level 94.4 %
     Track quality 100.0 %
     Test CRC 50926140
     Copy CRC 50926140
     Accurately ripped (confidence 13)  [5F9412B1]
     Copy OK
Track  3
     Fil
Download available for power users only.
09:44
201
Нет комментариев. Ваш будет первым!