Поиск

(Crossover Jazz, Smooth Jazz) Chieli Minucci - Sweet On You - 2000, FLAC (image+.cue), lossless

Треклист:
Chieli Minucci - Sweet On You
Жанр: Crossover Jazz, Smooth Jazz
Год выпуска диска: 2000
Производитель диска: Россия
Аудио кодек: FLAC
Тип рипа: image+.cue
Битрейт аудио: lossless
Продолжительность: 55:59
Происxождение рипа: Собственный рип из личной коллекции
Трэклист:
1. Endless Summer (Minucci) 5:22
2. Sweet On You (Minucci) 4:18
3. Hot 100 (Minucci) 4:01
4. On The Up An' Up (Minucci) 4:22
5. Everytime You're Near (Minucci) 4:39
6. Breaking Away (Minucci) 5:31
7. Little Squirt (Minucci) 4:52
8. Around The World (Minucci) 4:44
9. My Girl Sunday (Minucci) 4:39
10. Journey To You (Minucci) 5:56
11. Farewell (Minucci) 7:28
Доп. информация:
Исполнители:
Chieli Minucci - Guitars, Keyboards
Gerald Albright - Soprano Sax
David Mann - Flute, Soprano & Tenor Saxes
David Charles - Percussion, Shaker
Phillip Hamilton - Conga, Vocals
Armstead Christian - Vocals
Rosanna Vitro - Vocals
Jerry Brooks - Bass
Barry Danielian - Trumpet, Flugelhorn
Stan Harrison - Alto Sax
Lenny Pickett - Tenor Sax
Jay Rowe - Acoustic Grand Piano
Werner "Vana" Gierig - Acoustic Grand Piano
Fernando Saunders - Fretless Bass
 
EAC Report
Exact Audio Copy V0.99 prebeta 4 from 23. January 2008
Отчёт EAC об извлечении, выполненном 4. мая 2010, 20:36
Chieli Minucci / Sweet On You
Дисковод: ASUS DRW-20B1LT Adapter: 4 ID: 0
Режим чтения : Достоверность
Использование точного потока : Да
Отключение кэша аудио : Да
Использование указателей C2 : Нет
Коррекция смещения при чтении : 6
Способность читать области Lead-in и Lead-out : Нет
Заполнение пропущенных сэмплов тишиной : Да
Удаление блоков с тишиной в начале и конце : Нет
При вычислениях CRC использовались нулевые сэмплы : Да
Интерфейс : Встроенный Win32-интерфейс для Win NT/2000
Выходной формат : Пользовательский кодировщик
Выбранный битрейт : 768 kBit/s
Качество : Высокий
Добавление ID3-тэга : Нет
Утилита сжатия : D:\Program Files\Exact Audio Copy\Flac\Flac.exe
Дополнительные параметры : -8 --delete-input-file -o "D:\CDImage.flac" -V %s
TOC извлечённого CD
Трек | Старт | Длительность | Начальный сектор | Конечный сектор
---------------------------------------------------------------------
1 | 0:00.00 | 5:22.25 | 0 | 24174
2 | 5:22.25 | 4:18.40 | 24175 | 43564
3 | 9:40.65 | 4:01.30 | 43565 | 61669
4 | 13:42.20 | 4:22.45 | 61670 | 81364
5 | 18:04.65 | 4:39.37 | 81365 | 102326
6 | 22:44.27 | 5:31.73 | 102327 | 127224
7 | 28:16.25 | 4:52.60 | 127225 | 149184
8 | 33:09.10 | 4:44.37 | 149185 | 170521
9 | 37:53.47 | 4:39.48 | 170522 | 191494
10 | 42:33.20 | 5:56.00 | 191495 | 218194
11 | 48:29.20 | 7:28.50 | 218195 | 251844
Характеристики диапазона извлечения и сообщения об ошибках
Выбранный диапазон
Имя файла D:\Chieli Minucci - Sweet On You.wav
Пиковый уровень 99.8 %
Качество диапазона 100.0 %
CRC теста 3A45F0D0
CRC копии 3A45F0D0
Копирование... OK
Ошибок не произошло
AccurateRip: сводка
Трек 1 нет в базе данных
Трек 2 нет в базе данных
Трек 3 нет в базе данных
Трек 4 нет в базе данных
Трек 5 нет в базе данных
Трек 6 нет в базе данных
Трек 7 нет в базе данных
Трек 8 нет в базе данных
Трек 9 нет в базе данных
Трек 10 нет в базе данных
Трек 11 нет в базе данных
Ни одного трека нет в базе AccurateRip
Конец отчёта
По всем вопросам пишите личное сообщение пользователю M0p94ok.
20:27
231
Нет комментариев. Ваш будет первым!