Вы используете незарегистрированную версию компонента "Вкладки"!

Поиск

(contemporary jazz/modern creative) Jean Derome - Je me souviens-Hommage a` Georges Perec/ Tu r`luttes - 1994/1996, FLAC (image+.cue) lossless

Треклист:
Jean Derome / Je me souviens-Hommage a` Georges Perec/ Tu r`luttes
Жанр: contemporary jazz/modern creative
Страна-производитель диска: Canada
Год издания диска: 1994/1996
Издатель (лейбл): DAME
Номер по каталогу: AMO044CD
Страна: Canada
Аудио кодек: FLAC (*.flac)
Тип рипа: image+.cue
Битрейт аудио: lossless
Продолжительность: 44:48/22:46
Источник (релизер): собственный рип
Наличие сканов в содержимом раздачи: да
Треклист:
1. sewpent megwe
2. queneau, mon pote
3. le chien aboie
4. ah paris!
5. frappe la route
6. hot club
7. limonaire
8. (ils sont) jeunes, ils sont fous!
9. comme ventura
10. un homme qui dort
11. zero zero
12. dauphin vert
13. ()
14. t`en fais pas poupee
15. galop viennois
16. yogi boogie
17. lettre
18. la pompe
19. ou, waou
20. mashed patatoe twist
21. blouse de nuit
22. xavier c.
23. les klaxons qui font reuch!
24. western spaghetti
25. l`idee d` eddy
26. reverie
27. ouverture(s)
28. flammeches0tu r`luttes
29. ch`mis brunes
30. cinema
31. profondement heureux de vivre
32. la vie agricole
33. le temps passe don`vite
34. la marche victorieuse des "partitionnistes"
35. babel
36. echantillons
37. sculpture
38. la vie en ville
39. festival du XXe siecle
40. la vie en foret
41. on va (`) en manger une belle (pis eux(Z) aut`ausssi)
42. un mauvais moment a passer
43. la vie est courte
 
Лог создания рипа
Exact Audio Copy V0.99 prebeta 5 from 4. May 2009
EAC extraction logfile from 30. October 2010, 22:40
Jean Derome / Je me souviens - Hommade a Georges Perec
Used drive : Optiarc DVD RW AD-7243S Adapter: 0 ID: 1
Read mode : Secure
Utilize accurate stream : Yes
Defeat audio cache : Yes
Make use of C2 pointers : No
Read offset correction : 48
Overread into Lead-In and Lead-Out : No
Fill up missing offset samples with silence : Yes
Delete leading and trailing silent blocks : No
Null samples used in CRC calculations : Yes
Used interface : Native Win32 interface for Win NT & 2000
Used output format : User Defined Encoder
Selected bitrate : 768 kBit/s
Quality : High
Add ID3 tag : No
Command line compressor : C:\Program Files\Exact Audio Copy\FLAC\FLAC.EXE
Additional command line options : -6 -V -T "ARTIST=%a" -T "TITLE=%t" -T "ALBUM=%g" -T "DATE=%y" -T "TRACKNUMBER=%n" -T "GENRE=%m" -T "COMMENT=%e" %s -o %d
TOC of the extracted CD
Track | Start | Length | Start sector | End sector
---------------------------------------------------------
1 | 0:00.00 | 1:49.07 | 0 | 8181
2 | 1:49.07 | 2:11.55 | 8182 | 18061
3 | 4:00.62 | 1:56.15 | 18062 | 26776
4 | 5:57.02 | 2:00.33 | 26777 | 35809
5 | 7:57.35 | 2:09.10 | 35810 | 45494
6 | 10:06.45 | 2:03.20 | 45495 | 54739
7 | 12:09.65 | 1:43.25 | 54740 | 62489
8 | 13:53.15 | 1:54.67 | 62490 | 71106
9 | 15:48.07 | 1:05.18 | 71107 | 75999
10 | 16:53.25 | 2:17.70 | 76000 | 86344
11 | 19:11.20 | 1:59.17 | 86345 | 95286
12 | 21:10.37 | 1:37.65 | 95287 | 102626
13 | 22:48.27 | 1:21.60 | 102627 | 108761
14 | 24:10.12 | 1:45.58 | 108762 | 116694
15 | 25:55.70 | 2:41.55 | 116695 | 128824
16 | 28:37.50 | 1:30.50 | 128825 | 135624
17 | 30:08.25 | 0:46.22 | 135625 | 139096
18 | 30:54.47 | 0:36.25 | 139097 | 141821
19 | 31:30.72 | 2:13.48 | 141822 | 151844
20 | 33:44.45 | 1:50.57 | 151845 | 160151
21 | 35:35.27 | 1:58.35 | 160152 | 169036
22 | 37:33.62 | 1:55.48 | 169037 | 177709
23 | 39:29.35 | 0:45.12 | 177710 | 181096
24 | 40:14.47 | 2:19.30 | 181097 | 191551
25 | 42:34.02 | 2:14.68 | 191552 | 201669
26 | 44:48.70 | 2:13.67 | 201670 | 211711
27 | 47:02.62 | 2:08.50 | 211712 | 221361
28 | 49:11.37 | 0:56.45 | 221362 | 225606
29 | 50:08.07 | 1:48.63 | 225607 | 233769
30 | 51:56.70 | 0:38.42 | 233770 | 236661
31 | 52:35.37 | 1:32.55 | 236662 | 243616
32 | 54:08.17 | 0:42.20 | 243617 | 246786
33 | 54:50.37 | 1:17.13 | 246787 | 252574
34 | 56:07.50 | 1:01.47 | 252575 | 257196
35 | 57:09.22 | 1:19.60 | 257197 | 263181
36 | 58:29.07 | 2:01.70 | 263182 | 272326
37 | 60:31.02 | 1:04.05 | 272327 | 277131
38 | 61:35.07 | 1:22.70 | 277132 | 283351
39 | 62:58.02 | 0:46.40 | 283352 | 286841
40 | 63:44.42 | 1:17.30 | 286842 | 292646
41 | 65:01.72 | 0:45.40 | 292647 | 296061
42 | 65:47.37 | 0:58.43 | 296062 | 300454
43 | 66:46.05 | 2:59.15 | 300455 | 313894
Range status and errors
Selected range
Filename C:\Documents and Settings\S\Мои документы\Torrent раздача\Jean Derome - Je me souviens - Hommade a Georges Perec.wav
Peak level 88.4 %
Range quality 100.0 %
Test CRC D7B94CB9
Copy CRC D7B94CB9
Copy OK
No errors occurred
AccurateRip summary
Track 1 accurately ripped (confidence 1) [0B735706]
Track 2 accurately ripped (confidence 1) [592CDAFE]
Track 3 accurately ripped (confidence 1) [CC73FC19]
Track 4 accurately ripped (confidence 1) [EB27E189]
Track 5 accurately ripped (confidence 1) [04E2528B]
Track 6 accurately ripped (confidence 1) [A2A07BBF]
Track 7 accurately ripped (confidence 1) [3C0FA3D0]
Track 8 accurately ripped (confidence 1) [7D40A760]
Track 9 accurately ripped (confidence 1) [FFC3E923]
Track 10 accurately ripped (confidence 1) [68C0D027]
Track 11 accurately ripped (confidence 1) [CDCC03C4]
Track 12 accurately ripped (confidence 1) [4455C557]
Track 13 accurately ripped (confidence 1) [84450EF2]
Track 14 accurately ripped (confidence 1) [133EEA09]
Track 15 accurately ripped (confidence 1) [4389968E]
Track 16 accurately ripped (confidence 1) [C5928140]
Track 17 accurately ripped (confidence 1) [2EA20B98]
Track 18 accurately ripped (confidence 1) [56BD0566]
Track 19 accurately ripped (confidence 1) [14C72A61]
Track 20 accurately ripped (confidence 1) [52055EA8]
Track 21 accurately ripped (confidence 1) [F64C66D8]
Track 22 accurately ripped (confidence 1) [740F778E]
Track 23 accurately ripped (confidence 1) [D939D189]
Track 24 accurately ripped (confidence 1) [355CE919]
Track 25 accurately ripped (confidence 1) [5B78D243]
Track 26 accurately ripped (confidence 1) [7ABE9D85]
Track 27 accurately ripped (confidence 1) [6B0A1EDB]
Track 28 accurately ripped (confidence 1) [203A74B0]
Track 29 accurately ripped (confidence 1) [8641178B]
Track 30 accurately ripped (confidence 1) [4428F67F]
Track 31 accurately ripped (confidence 1) [3FC16965]
Track 32 accurately ripped (confidence 1) [AD8D80E1]
Track 33 accurately ripped (confidence 1) [61DA910A]
Track 34 accurately ripped (confidence 1) [E777E25E]
Track 35 accurately ripped (confidence 1) [09507DF7]
Track 36 accurately ripped (confidence 1) [6B470ECD]
Track 37 accurately ripped (confidence 1) [E20A27F9]
Track 38 accurately ripped (confidence 1) [5DDAC508]
Track 39 accurately ripped (confidence 1) [8738D873]
Track 40 accurately ripped (confidence 1) [4514CFF6]
Track 41 accurately ripped (confidence 1) [210310FE]
Track 42 accurately ripped (confidence 1) [953844E0]
Track 43 accurately ripped (confidence 1) [A6C13E2D]
All tracks accurately ripped
End of status report
 
Состав
jean derome - sax, flute, piccolo
frank luzano - sax, flute
robert m. lepage - clarinette, sax
ivanhoe jollcoeur - trompette, flugelhorn
louis babin - trompette et trompette piccolo
muhammad abdul al0khabyyr - trombone, waous
jean sabourin - sousaphone
martin tetreault - 3 tables tournantes
rene lussier - guitares, megaphone, bongos et percussions
guillaume dostaler - piano et orgue electrique
pierre cartier - contrebasse et guimbarde
michel dupire - percussion latines, vibraphone et xylophone
pierre tanguay - batterie
visiteurs
tom walsh - voix
jean rene - voix
michel f. cote - percussion
jean derome - sax, flute et piccolo
jone hetu - sax, voix
diane labrosse - echantilloneur
daniele p. roger - percussion
martin tetreault - tables
isnel da silveira - voix
veronique delmelte - sax, kaat de windt - piano
michel hatzigeoriou - bass
jean kowalski - batterie jan rzewski - sax
Другие раздачи
http://rutracker.org/forum/search.php?uid=17163016
По всем вопросам пишите личное сообщение пользователю M0p94ok.
06:17
127
Нет комментариев. Ваш будет первым!