Поиск

(Contemporary Jazz / Post-Bop / Straight-Ahead Jazz) Enrico Pieranunzi, Marc Johnson, Joey Baron feat. Kenny Wheeler - As Never Before - 2008 [CAM Jazz CAMJ 7807-2], FLAC (tracks+.cue), lossless

(Contemporary Jazz / Post-Bop / Straight-Ahead Jazz) Enrico Pieranunzi, Marc Johnson, Joey Baron feat. Kenny Wheeler - As Never Before - 2008 [CAM Jazz CAMJ 7807-2], FLAC (tracks+.cue), lossless
Треклист:
Enrico Pieranunzi, Marc Johnson, Joey Baron feat. Kenny Wheeler - As Never Before
Жанр: Contemporary Jazz / Post-Bop / Straight-Ahead Jazz
Страна-производитель диска: Italy
Год издания: 2008
Издатель (лейбл): CAM Jazz
Номер по каталогу: CAMJ 7807-2
Аудиокодек: FLAC (*.flac)
Тип рипа: tracks+.cue
Битрейт аудио: lossless
Продолжительность: 00:58:32
Источник (релизер): what.cd / спасибо kvolik27
Наличие сканов в содержимом раздачи: да
Треклист:
1. Soundings (06:51)
2. Improheart (03:16)
3. A Nameless Gate (06:44)
4. As Never Before (07:48)
5. Many Moons Ago (09:11)
6. Impromind (03:17)
7. Song for Kenny (06:50)
8. Time's Passage (07:01)
9. Winter Moon (07:20)
All music composed and arranged by Enrico Pieranunzi
except tracks # 2, 6 composed by Enrico Pieranunzl, Marc Johnson, Joey Baron, Kenny Wheeler
Доп. информация:
Musicians:
ENRICO PIERANUNZI - piano
MARC JOHNSON - double bass
JOEY BARON - drums
KENNY WHEELER - trumpet, flugelhorn
Recorded in Ludwigsburg on 30 November, 1 December 2004 at Bauer Studios
© 2008 C.A.M. S.r.l.
ENRICO PIERANUNZI, MARC JOHNSON, JOEY BARON feat. KENNY WHEELER - As Never Before camjazz.com
ENRICO PIERANUNZI, MARC JOHNSON, JOEY BARON feat. KENNY WHEELER - As Never Before allaboutjazz.com
ENRICO PIERANUNZI, MARC JOHNSON, JOEY BARON feat. KENNY WHEELER - As Never Before allmusic.com
ENRICO PIERANUNZI Official Site
ENRICO PIERANUNZI from Wikipedia, the free encyclopedia
MARC JOHNSON from Wikipedia, the free encyclopedia
JOEY BARON from Wikipedia, the free encyclopedia
KENNY WHEELER from Wikipedia, the free encyclopedia
 
... text ...
... In brief, for various reasons this album is something absolutely unique--something that, as the title suggests, has never happened before ~ Enrico Pieranunzi
 
 
... review ...
“Comme jamais auparavant”. Comme l’indique le titre, Enrico Pieranunzi a le sentiment d’avoir réalisé un album de premier plan. On ne le contredira pas. La rencontre avec Kenny Wheeler n’est certes pas la première à avoir été enregistrée puisque “Fellini Jazz” (2003) avait déjà été publié grâce à l’excellent label romain CamJazz. Mais le dialogue entre le trompettiste anglo-canadien et le pianiste n’avait peut-être pas atteint un tel niveau. Kenny Wheeler, comme toujours, ne ressemble qu’à lui-même et surprend par son art de la fêlure, du glissement et de trous d’air. Il n’y a pas de trompettiste qui soit plus proche de la voix, si capable d’exprimer une “si puissante tendresse humaine” (Proust parlant de Beethoven). Enrico Pieranunzi reste au second plan et donne libre cours au pur plaisir de jouer. Les compositions du pianiste ou les improvisations collectives du quartet obéissent à un langage mainstream d’aujourd’hui : de beaux thèmes, mais qui n’imposent pas une réimpression immédiate du Real Book. Ce sont plutôt des “polizzine non richiamate” des “petits bulletins non mentionnés” conçus pour stimuler la création collective. Ce qui fait la qualité du disque, c’est la liberté de l’interprétation, la profondeur de l’inspiration collective et la forte cohésion de l’ensemble. Avec une mention particulière pour Marc Johnson, qui livre une belle leçon de contrebasse. Une écoute à plein volume permettra d’en savourer toute la force.
Lucas Delattre ~ Jazzman 03/04/08
 
 
Лог создания рипа
Exact Audio Copy V1.0 beta 3 from 29. August 2011
EAC extraction logfile from 14. July 2012, 0:29
Enrico Pieranunzi, Marc Johnson, Joey Baron / As Never Before
Used drive  : PLEXTOR CD-R   PX-W2410A   Adapter: 2  ID: 0
Read mode               : Secure
Utilize accurate stream : Yes
Defeat audio cache      : Yes
Make use of C2 pointers : No
Read offset correction                      : 98
Overread into Lead-In and Lead-Out          : No
Fill up missing offset samples with silence : Yes
Delete leading and trailing silent blocks   : No
Null samples used in CRC calculations       : Yes
Used interface                              : Native Win32 interface for Win NT & 2000
Gap handling                                : Appended to previous track
Used output format              : User Defined Encoder
Selected bitrate                : 1024 kBit/s
Quality                         : High
Add ID3 tag                     : No
Command line compressor         : C:\Program Files\Exact Audio Copy\FLAC\FLAC.EXE
Additional command line options : -8 -V -T "ARTIST=%artist%" -T "TITLE=%title%" -T "ALBUM=%albumtitle%" -T "DATE=%year%" -T "TRACKNUMBER=%tracknr%" -T "GENRE=%genre%" -T "PERFORMER=%albuminterpret%" -T "COMPOSER=%composer%" %haslyrics%--tag-from-file=LYRICS="%lyricsfile%"%haslyrics% -T "ALBUMARTIST=%albumartist%" -T "DISCNUMBER=%cdnumber%" -T "TOTALDISCS=%totalcds%" -T "TOTALTRACKS=%numtracks%" -T "COMMENT=%comment%" %source%
TOC of the extracted CD
     Track |   Start  |  Length  | Start sector | End sector
    ---------------------------------------------------------
        1  |  0:00.00 |  6:52.57 |         0    |    30956
        2  |  6:52.57 |  3:16.39 |     30957    |    45695
        3  | 10:09.21 |  6:45.20 |     45696    |    76090
        4  | 16:54.41 |  7:50.32 |     76091    |   111372
        5  | 24:44.73 |  9:12.45 |    111373    |   152817
        6  | 33:57.43 |  3:18.65 |    152818    |   167732
        7  | 37:16.33 |  6:52.02 |    167733    |   198634
        8  | 44:08.35 |  7:03.57 |    198635    |   230416
        9  | 51:12.17 |  7:20.52 |    230417    |   263468
Track  1
     Filename X:\EAC\Enrico Pieranunzi, Marc Johnson, Joey Baron - As Never Before (CAM 2008) [FLAC]\01. Soundings.wav
     Pre-gap length  0:00:02.00
     Peak level 98.1 %
     Extraction speed 1.8 X
     Track quality 100.0 %
     Test CRC B235A428
     Copy CRC B235A428
     Accurately ripped (confidence 2)  [5B385982]  (AR v2)
     Copy OK
Track  2
     Filename X:\EAC\Enrico Pieranunzi, Marc Johnson, Joey Baron - As Never Before (CAM 2008) [FLAC]\02. Improheart.wav
     Pre-gap length  0:00:01.00
     Peak level 97.3 %
     Extraction speed 1.8 X
     Track quality 99.9 %
     Test CRC CCB377D0
     Copy CRC CCB377D0
     Accurately ripped (confidence 2)  [8C729299]  (AR v2)
     Copy OK
Track  3
     Filename X:\EAC\Enrico Pieranunzi, Marc Johnson, Joey Baron - As Never Before (CAM 2008) [FLAC]\03. A Nameless Gate.wav
     Peak level 98.1 %
     Extraction speed 1.9 X
     Track quality 100.0 %
     Test CRC 025CD21F
     Copy CRC 025CD21F
     Accurately ripped (confidence 2)  [64995772]  (AR v2)
     Copy OK
Track  4
     Filename X:\EAC\Enrico Pieranunzi, Marc Johnson, Joey Baron - As Never Before (CAM 2008) [FLAC]\04. As Never Before.wav
     Pre-gap length  0:00:01.00
     Peak level 97.6 %
     Extraction speed 1.8 X
     Track quality 99.9 %
     Test CRC 28594A17
     Copy CRC 28594A17
     Accurately ripped (confidence 2)  [E5C0BFF2]  (AR v2)
     Copy OK
Track  5
     Filename X:\EAC\Enrico Pieranunzi, Marc Johnson, Joey Baron - As Never Before (CAM 2008) [FLAC]\05. Many Moons Ago.wav
     Pre-gap length  0:00:02.00
     Peak level 98.3 %
     Extraction speed 1.9 X
     Track quality 100.0 %
     Test CRC B68A44D8
     Copy CRC B68A44D8
     Accurately ripped (confidence 2)  [C598A316]  (AR v2)
     Copy OK
Track  6
     Filename X:\EAC\Enrico Pieranunzi, Marc Johnson, Joey Baron - As Never Before (CAM 2008) [FLAC]\06. Impromind.wav
     Pre-gap length  0:00:01.45
     Peak level 97.7 %
     Extraction speed 1.8 X
     Track quality 99.9 %
     Test CRC 05050460
     Copy CRC 05050460
     Accurately ripped (confidence 2)  [FB3B64E8]  (AR v2)
     Copy OK
Track  7
     Filename X:\EAC\Enrico Pieranunzi, Marc Johnson, Joey Baron - As Never Before (CAM 2008) [FLAC]\07. Song For Kenny.wav
     Pre-gap length  0:00:01.30
     Peak level 98.2 %
     Extraction speed 1.8 X
     Track quality 99.9 %
     Test CRC EEB78B33
     Copy CRC EEB78B33
     Accurately ripped (confidence 2)  [AA5A8006]  (AR v2)
     Copy OK
Track  8
     Filename X:\EAC\Enrico Pieranunzi, Marc Johnson, Joey Baron - As Never Before (CAM 2008) [FLAC]\08. Time's Passage.wav
     Pre-gap length  0:00:01.30
     Peak level 97.9 %
     Extraction speed 1.9 X
     Track quality 100.0 %
     Test CRC 99D2BA4E
     Copy CRC 99D2BA4E
     Accurately ripped (confidence 2)  [B41CF58C]  (AR v2)
     Copy OK
Track  9
     Filename X:\EAC\Enrico Pieranunzi, Marc Johnson, Joey Baron - As Never Before (CAM 2008) [FLAC]\09. Winter Moon.wav
     Pre-gap length  0:00:02.00
     Peak level 97.9 %
     Extraction speed 1.7 X
     Track quality 100.0 %
     Test CRC 0E07FD89
     Copy CRC 0E07FD89
     Accurately ripped (confidence 2)  [E16E576A]  (AR v2)
     Copy OK
All tracks accurately ripped
No errors occurred
End of status report
---- CUETools DB Plugin V2.1.3
[CTDB TOCID: F2_h1yDZQxSaew2QF6YRmhocHu4-] found, Submit result: F2_h1yDZQxSaew2QF6YRmhocHu4- has been confirmed
[8efc1f9c] (1/1) Accurately ripped
==== Log checksum B52686BBC8EE19ED2FD7AE4D0E55193BE6F168FC3A45A9FF1A902F2239CFD764 ====
 
 
Содержание индексной карты (.CUE)
REM GENRE Jazz
REM DATE 2008
REM DISCID 660DB809
REM COMMENT "ExactAudioCopy v1.0b3"
PERFORMER "Enrico Pieranunzi, Marc Johnson, Joey Baron"
TITLE "As Never Before"
FILE "01. Soundings.wav" WAVE
  TRACK 01 AUDIO
    TITLE "Soundings"
    PERFORMER "Enrico Pieranunzi, Marc Johnson, Joey Baron"
    ISRC US29B0749174
    INDEX 01 00:00:00
  TRACK 02 AUDIO
    TITLE "Improheart"
    PERFORMER "Enrico Pieranunzi, Marc Johnson, Joey Baron"
    ISRC US29B0749176
    INDEX 00 06:51:57
FILE "02. Improheart.wav" WAVE
    INDEX 01 00:00:00
FILE "03. A Nameless Gate.wav" WAVE
  TRACK 03 AUDIO
    TITLE "A Nameless Gate"
    PERFORMER "Enrico Pieranunzi, Marc Johnson, Joey Baron"
    ISRC US29B0749180
    INDEX 01 00:00:00
  TRACK 04 AUDIO
    TITLE "As Never Before"
    PERFORMER "Enrico Pieranunzi, Marc Johnson, Joey Baron"
    ISRC US29B0749182
    INDEX 00 06:44:20
FILE "04. As Never Before.wav" WAVE
    INDEX 01 00:00:00
  TRACK 05 AUDIO
    TITLE "Many Moons Ago"
    PERFORMER "Enrico Pieranunzi, Marc Johnson, Joey Baron"
    ISRC US29B0749184
    INDEX 00 07:48:32
FILE "05. Many Moons Ago.wav" WAVE
    INDEX 01 00:00:00
  TRACK 06 AUDIO
    TITLE "Impromind"
    PERFORMER "Enrico Pieranunzi, Marc Johnson, Joey Baron"
    ISRC US29B0749178
    INDEX 00 09:11:00
FILE "06. Impromind.wav" WAVE
    INDEX 01 00:00:00
  TRACK 07 AUDIO
    TITLE "Song For Kenny"
    PERFORMER "Enrico Pieranunzi, Marc Johnson, Joey Baron"
    ISRC US29B0749186
    INDEX 00 03:17:35
FILE "07. Song For Kenny.wav" WAVE
    INDEX 01 00:00:00
  TRACK 08 AUDIO
    TITLE "Time's Passage"
    PERFORMER "Enrico Pieranunzi, Marc Johnson, Joey Baron"
    ISRC US29B0749188
    INDEX 00 06:50:47
FILE "08. Time's Passage.wav" WAVE
    INDEX 01 00:00:00
  TRACK 09 AUDIO
    TITLE "Winter Moon"
    PERFORMER "Enrico Pieranunzi, Marc Johnson, Joey Baron"
    ISRC US29B0749190
    INDEX 00 07:01:57
FILE "09. Winter Moon.wav" WAVE
    INDEX 01 00:00:00
 
 
auCDtect Task Manager
-----------------------
DON'T MODIFY THIS FILE
-----------------------
PERFORMER: auCDtect Task Manager, ver. 1.5.1RC6 build 1.5.1.7
Copyright (c) 2008-2010 y-soft. All rights reserved
http://y-soft.org
ANALYZER: auCDtect: CD records authenticity detector, version 0.8.2
Copyright (c) 2004 Oleg Berngardt. All rights reserved.
Copyright (c) 2004 Alexander Djourik. All rights reserved.
FILE: 09. Winter Moon.flac
  Size: 46299839 Hash: 1E14262483141B9069D81C05D00D1E03 Accuracy: -m0
  Conclusion: CDDA 99%
  Signature: D06C62766BFD092873AB0931E1F8106335309599
FILE: 08. Time's Passage.flac
  Size: 42247064 Hash: 138312DD15F911941273C214C4ACDFB3 Accuracy: -m0
  Conclusion: CDDA 100%
  Signature: 3A18F3931187FB64A385D1DF7A51B08821339272
FILE: 07. Song For Kenny.flac
  Size: 43374050 Hash: 649D92154733DFC856269F47F1D430C1 Accuracy: -m0
  Conclusion: CDDA 100%
  Signature: D8EED84DFA3EFB2832A6773BA32EA63AC0CAD8EE
FILE: 06. Impromind.flac
  Size: 18138815 Hash: C514A07C1649713A2C4C5FA2AF46C07E Accuracy: -m0
  Conclusion: CDDA 100%
  Signature: 158E537A5766D445D40BD6F1A72C57256212BE9B
FILE: 05. Many Moons Ago.flac
  Size: 58669598 Hash: 2ED609DFA4B1B771AE66A369784DA816 Accuracy: -m0
  Conclusion: CDDA 100%
  Signature: E423E339C956B2C4643A53A94E64FA898E04BEE5
FILE: 04. As Never Before.flac
  Size: 45544445 Hash: 35003A037617C4F82E1429317C505529 Accuracy: -m0
  Conclusion: CDDA 100%
  Signature: 44FA4CEA58337747BD5ACB53FD4652E6A50926F6
FILE: 03. A Nameless Gate.flac
  Size: 39984015 Hash: A4DF8C657B4BFCAB6DB6F09BE0B9A274 Accuracy: -m0
  Conclusion: CDDA 100%
  Signature: ADF37E7CDA348CDE495DD019DC28A11202FE98D1
FILE: 02. Improheart.flac
  Size: 15513336 Hash: 402D54DCE1672E0E7C9062BFFF469480 Accuracy: -m0
  Conclusion: CDDA 100%
  Signature: E4C116ABFF7EE5214AC31A515256E5744226BC69
FILE: 01. Soundings.flac
  Size: 47186932 Hash: FE24798384D65764C55FD0109D5AAA20 Accuracy: -m0
  Conclusion: CDDA 100%
  Signature: 6FB01687070C3416F8FA58FDA4EF0A203133EC80
Download available for power users only.
05:58
399
Нет комментариев. Ваш будет первым!