Поиск

(Contemporary Jazz, Post-Bop, Fusion) [CD] Jeff Beal (feat. John Patitucci, Dave Weckl, Vinnie Colaiuta, Steve Cardenas, John Beasley) - Three Graces - 1993, FLAC (tracks+.cue), lossless

(Contemporary Jazz, Post-Bop, Fusion) [CD] Jeff Beal (feat. John Patitucci, Dave Weckl, Vinnie Colaiuta, Steve Cardenas, John Beasley) - Three Graces - 1993, FLAC (tracks+.cue), lossless
Треклист:
Jeff Beal (feat. John Patitucci, Dave Weckl, Vinnie Colaiuta, Steve Cardenas, John Beasley) / Three Graces
Жанр: Contemporary Jazz, Post-Bop, Fusion
Носитель: CD
Страна-производитель диска (релиза): US
Год издания: 1993
Издатель (лейбл): Triloka Records
Номер по каталогу: 7197-2
Аудиокодек: FLAC (*.flac)
Тип рипа: tracks+.cue
Битрейт аудио: lossless
Продолжительность: 51:48
Источник (релизер): marcelvanb
Наличие сканов в содержимом раздачи: нет
Треклист:
1 Jazz Habit 3:39
2 Three Graces 5:40
3 I Saw Isabella 4:41
4 Wrong Number 5:15
5 Through A Glass Dimly 6:49
6 The Watcher 5:20
7 Prayer Of St. Francis 3:47
8 Dizzy Spells 6:21
9 For Miles 6:22
10 Waltz For Mary 2:52
 
Лог создания рипа
X Lossless Decoder version 20141129a (148.2)
XLD extraction logfile from 2015-09-28 08:01:26 +0200
Jeff Beal / Three Graces
Used drive : HL-DT-ST DVDRW GX40N (revision RQ00)
Media type : Pressed CD
Ripper mode : XLD Secure Ripper
Disable audio cache : OK for the drive with a cache less than 1375KiB
Make use of C2 pointers : NO
Read offset correction : 6
Max retry count : 100
Gap status : Analyzed, Appended (except HTOA)
TOC of the extracted CD
Track | Start | Length | Start sector | End sector
---------------------------------------------------------
1 | 00:00:00 | 03:43:02 | 0 | 16726
2 | 03:43:02 | 05:40:05 | 16727 | 42231
3 | 09:23:07 | 05:41:43 | 42232 | 67849
4 | 15:04:50 | 05:15:52 | 67850 | 91526
5 | 20:20:27 | 06:40:43 | 91527 | 121569
6 | 27:00:70 | 05:19:65 | 121570 | 145559
7 | 32:20:60 | 03:49:50 | 145560 | 162784
8 | 36:10:35 | 06:22:10 | 162785 | 191444
9 | 42:32:45 | 06:22:05 | 191445 | 220099
10 | 48:54:50 | 02:54:22 | 220100 | 233171
List of alternate offset correction values
# | Absolute | Relative | Confidence
------------------------------------------
1 | -1874 | -1880 | 7
AccurateRip Summary (DiscID: 0013baa8-009f211f-7c0c240a)
Track 01 : OK (v1+v2, confidence 4/6)
Track 02 : OK (v1+v2, confidence 4/10)
Track 03 : OK (v1+v2, confidence 4/11)
Track 04 : OK (v1+v2, confidence 4/10)
Track 05 : OK (v1+v2, confidence 4/11)
Track 06 : OK (v1+v2, confidence 4/10)
Track 07 : OK (v1+v2, confidence 4/7)
Track 08 : OK (v1+v2, confidence 4/6)
Track 09 : OK (v1+v2, confidence 4/11)
Track 10 : OK (v2, confidence 2/5)
->All tracks accurately ripped.
All Tracks
Album gain : -0.56 dB
Peak : 1.000000
Statistics
Read error : 0
Jitter error (maybe fixed) : 0
Retry sector count : 0
Damaged sector count : 0
Track 01
Filename : /Volumes/LaCie/Music/Jeff Beal - Three Graces /01 - Jazz Habit.flac
Pre-gap length : 00:02:00
Track gain : -0.45 dB
Peak : 0.871399
CRC32 hash : 18992364
CRC32 hash (skip zero) : 0E26010C
AccurateRip v1 signature : A96C84E0
AccurateRip v2 signature : A6447E56
->Accurately ripped (v1+v2, confidence 2+2/6)
Statistics
Read error : 0
Jitter error (maybe fixed) : 0
Retry sector count : 0
Damaged sector count : 0
Track 02
Filename : /Volumes/LaCie/Music/Jeff Beal - Three Graces /02 - Three Graces.flac
Pre-gap length : 00:02:40
Track gain : -0.38 dB
Peak : 0.786926
CRC32 hash : A75DA2B1
CRC32 hash (skip zero) : D1EF63DD
AccurateRip v1 signature : 1E749387
AccurateRip v2 signature : AB3CB5A8
->Accurately ripped (v1+v2, confidence 2+2/10)
Statistics
Read error : 0
Jitter error (maybe fixed) : 0
Retry sector count : 0
Damaged sector count : 0
Track 03
Filename : /Volumes/LaCie/Music/Jeff Beal - Three Graces /03 - I Saw Isabella.flac
Pre-gap length : 00:00:30
Track gain : -0.38 dB
Peak : 0.944092
CRC32 hash : 94B28511
CRC32 hash (skip zero) : 5BB42E11
AccurateRip v1 signature : 23F31FB2
AccurateRip v2 signature : DAEF3087
->Accurately ripped (v1+v2, confidence 2+2/11)
Statistics
Read error : 0
Jitter error (maybe fixed) : 0
Retry sector count : 0
Damaged sector count : 0
Track 04
Filename : /Volumes/LaCie/Music/Jeff Beal - Three Graces /04 - Wrong Number.flac
Pre-gap length : 00:01:05
Track gain : -1.54 dB
Peak : 0.961304
CRC32 hash : D2B8532B
CRC32 hash (skip zero) : 99DFC95F
AccurateRip v1 signature : AB33DB8C
AccurateRip v2 signature : E00C3BEE
->Accurately ripped (v1+v2, confidence 2+2/10)
Statistics
Read error : 0
Jitter error (maybe fixed) : 0
Retry sector count : 0
Damaged sector count : 0
Track 05
Filename : /Volumes/LaCie/Music/Jeff Beal - Three Graces /05 - Through A Glass Dimly.flac
Pre-gap length : 00:00:62
Track gain : -0.20 dB
Peak : 0.946686
CRC32 hash : F535BD87
CRC32 hash (skip zero) : 48407639
AccurateRip v1 signature : 92CE3786
AccurateRip v2 signature : E2689B50
->Accurately ripped (v1+v2, confidence 2+2/11)
Statistics
Read error : 0
Jitter error (maybe fixed) : 0
Retry sector count : 0
Damaged sector count : 0
Track 06
Filename : /Volumes/LaCie/Music/Jeff Beal - Three Graces /06 - The Watchers.flac
Pre-gap length : 00:00:50
Track gain : -1.83 dB
Peak : 1.000000
CRC32 hash : 5DF1DB35
CRC32 hash (skip zero) : 4382D27B
AccurateRip v1 signature : 7B6C8A33
AccurateRip v2 signature : A6228810
->Accurately ripped (v1+v2, confidence 2+2/10)
Statistics
Read error : 0
Jitter error (maybe fixed) : 0
Retry sector count : 0
Damaged sector count : 0
Track 07
Filename : /Volumes/LaCie/Music/Jeff Beal - Three Graces /07 - Prayer of St. Francis.flac
Pre-gap length : 00:01:58
Track gain : 0.91 dB
Peak : 0.788330
CRC32 hash : C90100BF
CRC32 hash (skip zero) : 90BFD975
AccurateRip v1 signature : 171E6A5E
AccurateRip v2 signature : D7F1FF98
->Accurately ripped (v1+v2, confidence 2+2/7)
Statistics
Read error : 0
Jitter error (maybe fixed) : 0
Retry sector count : 0
Damaged sector count : 0
Track 08
Filename : /Volumes/LaCie/Music/Jeff Beal - Three Graces /08 - Dizzy Spells.flac
Pre-gap length : 00:01:20
Track gain : -1.35 dB
Peak : 0.993073
CRC32 hash : C181AB1D
CRC32 hash (skip zero) : 492109F1
AccurateRip v1 signature : A1B57A3B
AccurateRip v2 signature : 2C803081
->Accurately ripped (v1+v2, confidence 2+2/6)
Statistics
Read error : 0
Jitter error (maybe fixed) : 0
Retry sector count : 0
Damaged sector count : 0
Track 09
Filename : /Volumes/LaCie/Music/Jeff Beal - Three Graces /09 - For Miles.flac
Pre-gap length : 00:00:23
Track gain : 1.21 dB
Peak : 0.859131
CRC32 hash : E09B2513
CRC32 hash (skip zero) : D83006FA
AccurateRip v1 signature : 9AD4858F
AccurateRip v2 signature : C51D3AD3
->Accurately ripped (v1+v2, confidence 2+2/11)
Statistics
Read error : 0
Jitter error (maybe fixed) : 0
Retry sector count : 0
Damaged sector count : 0
Track 10
Filename : /Volumes/LaCie/Music/Jeff Beal - Three Graces /10 - Waltz for Mary.flac
Pre-gap length : 00:01:00
Track gain : 5.05 dB
Peak : 0.791718
CRC32 hash : 68197993
CRC32 hash (skip zero) : 32168887
AccurateRip v1 signature : 8D320930
AccurateRip v2 signature : 03BA52B3
->Accurately ripped (v2, confidence 2/5)
Statistics
Read error : 0
Jitter error (maybe fixed) : 0
Retry sector count : 0
Damaged sector count : 0
No errors occurred
End of status report
-----BEGIN XLD SIGNATURE-----
QGpf8b3jnlUiOQvrn7r9POUk4Pi2xMWv8nW4uV3WGVPwBabLhkbQHCmED2Q2uDpgqZgm6hYzXFAcsAF1NDoRLi3gwsfrfx.6APWui3u
-----END XLD SIGNATURE-----
 
Содержание индексной карты (.CUE)
TITLE "Three Graces"
PERFORMER "Jeff Beal"
REM GENRE "Jazz"
REM DATE "1993"
REM DISCNUMBER 1
REM TOTALDISCS 1
REM DISCID 7C0C240A
REM REPLAYGAIN_ALBUM_GAIN -0.56 dB
REM REPLAYGAIN_ALBUM_PEAK 1.000000
FILE "01 - Jazz Habit.flac" WAVE
TRACK 01 AUDIO
TITLE "Jazz Habit"
REM REPLAYGAIN_TRACK_GAIN -0.45 dB
REM REPLAYGAIN_TRACK_PEAK 0.871399
INDEX 01 00:00:00
TRACK 02 AUDIO
TITLE "Three Graces"
REM REPLAYGAIN_TRACK_GAIN -0.38 dB
REM REPLAYGAIN_TRACK_PEAK 0.786926
INDEX 00 03:40:37
FILE "02 - Three Graces.flac" WAVE
INDEX 01 00:00:00
TRACK 03 AUDIO
TITLE "I Saw Isabella"
REM REPLAYGAIN_TRACK_GAIN -0.38 dB
REM REPLAYGAIN_TRACK_PEAK 0.944092
INDEX 00 05:39:50
FILE "03 - I Saw Isabella.flac" WAVE
INDEX 01 00:00:00
TRACK 04 AUDIO
TITLE "Wrong Number"
REM REPLAYGAIN_TRACK_GAIN -1.54 dB
REM REPLAYGAIN_TRACK_PEAK 0.961304
INDEX 00 05:40:38
FILE "04 - Wrong Number.flac" WAVE
INDEX 01 00:00:00
TRACK 05 AUDIO
TITLE "Through A Glass Dimly"
REM REPLAYGAIN_TRACK_GAIN -0.20 dB
REM REPLAYGAIN_TRACK_PEAK 0.946686
INDEX 00 05:14:65
FILE "05 - Through A Glass Dimly.flac" WAVE
INDEX 01 00:00:00
TRACK 06 AUDIO
TITLE "The Watchers"
REM REPLAYGAIN_TRACK_GAIN -1.83 dB
REM REPLAYGAIN_TRACK_PEAK 1.000000
INDEX 00 06:39:68
FILE "06 - The Watchers.flac" WAVE
INDEX 01 00:00:00
TRACK 07 AUDIO
TITLE "Prayer of St. Francis"
REM REPLAYGAIN_TRACK_GAIN 0.91 dB
REM REPLAYGAIN_TRACK_PEAK 0.788330
INDEX 00 05:18:07
FILE "07 - Prayer of St. Francis.flac" WAVE
INDEX 01 00:00:00
TRACK 08 AUDIO
TITLE "Dizzy Spells"
REM REPLAYGAIN_TRACK_GAIN -1.35 dB
REM REPLAYGAIN_TRACK_PEAK 0.993073
INDEX 00 03:48:30
FILE "08 - Dizzy Spells.flac" WAVE
INDEX 01 00:00:00
TRACK 09 AUDIO
TITLE "For Miles"
REM REPLAYGAIN_TRACK_GAIN 1.21 dB
REM REPLAYGAIN_TRACK_PEAK 0.859131
INDEX 00 06:21:62
FILE "09 - For Miles.flac" WAVE
INDEX 01 00:00:00
TRACK 10 AUDIO
TITLE "Waltz for Mary"
REM REPLAYGAIN_TRACK_GAIN 5.05 dB
REM REPLAYGAIN_TRACK_PEAK 0.791718
INDEX 00 06:21:05
FILE "10 - Waltz for Mary.flac" WAVE
INDEX 01 00:00:00
 
Об альбоме (сборнике)
Trumpeter Jeff Beal's compositions do not contain catchy melodies, but instead set mysterious and often melancholy moods with interesting frameworks, using occasional funk lines creatively. Much of the music builds logically to unexpected heights with surprising turns. Beal's fine trumpet playing is generally quite original (even if he hints strongly at Miles Davis' sound when he is muted) and his sextet (with Steve Tavaglione's tenor, pianist John Beasley, and bassist John Patitucci) is flexible enough to interpret his complex compositions.
 
Состав
Jeff Beal - Arranger, Composer, Flugelhorn, Piano, Primary Artist, Producer, Trumpet
John Beasley - Piano
Steve Cardenas - Guitar (Electric)
Vinnie Colaiuta - Drums
John Patitucci - Bass, Bass (Electric)
Steve Tavaglione - Sax (Tenor)
Dave Weckl - Drums
Приватный:
Нет (DHT включён)
Размер:
279.34 Мб (292,911,205 байт) » файлов: 13
Участники:
0 раздают, 0 качают (0 участников всего)
Внешние участники:
3 раздают, 1 качают (4 участников всего) [ Обновить ]
For power users only: no seeders - write to support@pro-jazz.com. Для power user: нет сидеров - пишите на support@pro-jazz.com.
02:19
171
Нет комментариев. Ваш будет первым!