Вы используете незарегистрированную версию компонента "Вкладки"!

Поиск

(Contemporary Jazz, Plainisphare) Jerome Berney Quartet (Matthieu Michel, Malcolm Braff, Patrice Moret) - Reveries - 1998, FLAC (tracks+.cue), lossless

(Contemporary Jazz, Plainisphare) Jerome Berney Quartet (Matthieu Michel, Malcolm Braff, Patrice Moret) - Reveries - 1998, FLAC (tracks+.cue), lossless
Треклист:
Jérôme Berney Quartet / Rêveries
Жанр: Contemporary Jazz, Plainisphare
Страна-производитель диска: Switzerland
Год издания: 1998
Издатель (лейбл): Plainisphare
Номер по каталогу: JB1
Аудиокодек: FLAC (*.flac)
Тип рипа: tracks+.cue
Битрейт аудио: lossless
Продолжительность: 52:01
Источник (релизер): я
Наличие сканов в содержимом раздачи: нет
Треклист:
1. Alexandra 8:05
2. La Butte Montmartre 9:00
3. Cinq 6:28
4. Chemin andalou 5:54
5. Ramona’s Delight 6:06
6. Malcolm B 8:45
7. Rêveries 7:43
Toutes les compositions sont de Jérôme Berney, excepté « Ramona’s Delight » de Malcolm Braff.
Enregistré au Studio du Flon à Lausanne (Suisse) par Benoît Corboz, les 7 et 8 novembre 1998.
Jérôme Berney – batterie
Matthieu Michel – bugle
Malcolm Braff – piano
Patrice Moret – contrebasse
 
Лог создания рипа
Exact Audio Copy V1.0 beta 3 from 29. August 2011
EAC extraction logfile from 10. October 2013, 12:33
Jérôme Berney Quartet / Rêveries
Used drive : SlimtypeeNAU508 5 Adapter: 1 ID: 0
Read mode : Secure
Utilize accurate stream : Yes
Defeat audio cache : Yes
Make use of C2 pointers : No
Read offset correction : 6
Overread into Lead-In and Lead-Out : No
Fill up missing offset samples with silence : Yes
Delete leading and trailing silent blocks : No
Null samples used in CRC calculations : Yes
Used interface : Native Win32 interface for Win NT & 2000
Gap handling : Appended to previous track
Used output format : User Defined Encoder
Selected bitrate : 768 kBit/s
Quality : High
Add ID3 tag : No
Command line compressor : C:\Program Files (x86)\Exact Audio Copy\Flac\flac.exe
Additional command line options : -8 -V -T "ARTIST=%artist%" -T "TITLE=%title%" -T "ALBUM=%albumtitle%" -T "DATE=%year%" -T "TRACKNUMBER=%tracknr%" -T "GENRE=%genre%" -T "PERFORMER=%albuminterpret%" -T "COMPOSER=%composer%" %haslyrics%--tag-from-file=LYRICS="%lyricsfile%"%haslyrics% -T "ALBUMARTIST=%albumartist%" -T "DISCNUMBER=%cdnumber%" -T "TOTALDISCS=%totalcds%" -T "TOTALTRACKS=%numtracks%" -T "COMMENT=%comment%" %source% -o %dest%
TOC of the extracted CD
Track | Start | Length | Start sector | End sector
---------------------------------------------------------
1 | 0:00.01 | 8:04.44 | 1 | 36344
2 | 8:04.45 | 9:00.01 | 36345 | 76845
3 | 17:04.46 | 6:28.08 | 76846 | 105953
4 | 23:32.54 | 5:53.66 | 105954 | 132494
5 | 29:26.45 | 6:06.07 | 132495 | 159951
6 | 35:32.52 | 8:45.01 | 159952 | 199327
7 | 44:17.53 | 7:42.63 | 199328 | 234040
Track 1
Filename C:\EAC rips\01 - Alexandra.wav
Pre-gap length 0:00:02.01
Peak level 91.8 %
Extraction speed 1.2 X
Track quality 100.0 %
Test CRC 6AACD9E9
Copy CRC 6AACD9E9
Track not present in AccurateRip database
Copy OK
Track 2
Filename C:\EAC rips\02 - La Butte Montmartre.wav
Peak level 96.8 %
Extraction speed 1.4 X
Track quality 100.0 %
Test CRC 7F3F531C
Copy CRC 7F3F531C
Track not present in AccurateRip database
Copy OK
Track 3
Filename C:\EAC rips\03 - Cinq.wav
Peak level 97.9 %
Extraction speed 1.5 X
Track quality 99.9 %
Test CRC 61953835
Copy CRC 61953835
Track not present in AccurateRip database
Copy OK
Track 4
Filename C:\EAC rips\04 - Chemin andalou.wav
Peak level 99.8 %
Extraction speed 1.6 X
Track quality 99.9 %
Test CRC 4269D8D4
Copy CRC 4269D8D4
Track not present in AccurateRip database
Copy OK
Track 5
Filename C:\EAC rips\05 - Ramona's Delight.wav
Peak level 99.6 %
Extraction speed 1.8 X
Track quality 100.0 %
Test CRC 37F5A011
Copy CRC 37F5A011
Track not present in AccurateRip database
Copy OK
Track 6
Filename C:\EAC rips\06 - Malcolm B.wav
Peak level 95.3 %
Extraction speed 2.0 X
Track quality 100.0 %
Test CRC 427D0CFE
Copy CRC 427D0CFE
Track not present in AccurateRip database
Copy OK
Track 7
Filename C:\EAC rips\07 - Rêveries.wav
Peak level 90.6 %
Extraction speed 2.0 X
Track quality 99.9 %
Test CRC 5A5F6A20
Copy CRC 5A5F6A20
Track not present in AccurateRip database
Copy OK
None of the tracks are present in the AccurateRip database
No errors occurred
End of status report
---- CUETools DB Plugin V2.1.4
[CTDB TOCID: E.eT8REPOg9Pztl2UIM3xGoND6Q-] disk not present in database
Submit result: E.eT8REPOg9Pztl2UIM3xGoND6Q- has been uploaded
==== Log checksum 14029545181D9371CA4D40502C93718678C0DCE69BBE6056E6745182C31E1E35 ====
 
Содержание индексной карты (.CUE)
REM GENRE Jazz
REM DATE 1998
REM DISCID 5D0C3007
REM COMMENT "ExactAudioCopy v1.0b3"
PERFORMER "Jérôme Berney Quartet"
TITLE "Rêveries"
FILE "01 - Alexandra.wav" WAVE
TRACK 01 AUDIO
TITLE "Alexandra"
PERFORMER "Jérôme Berney Quartet"
FLAGS DCP
PREGAP 00:00:01
INDEX 01 00:00:00
FILE "02 - La Butte Montmartre.wav" WAVE
TRACK 02 AUDIO
TITLE "La Butte Montmartre"
PERFORMER "Jérôme Berney Quartet"
FLAGS DCP
INDEX 01 00:00:00
FILE "03 - Cinq.wav" WAVE
TRACK 03 AUDIO
TITLE "Cinq"
PERFORMER "Jérôme Berney Quartet"
INDEX 01 00:00:00
FILE "04 - Chemin andalou.wav" WAVE
TRACK 04 AUDIO
TITLE "Chemin andalou"
PERFORMER "Jérôme Berney Quartet"
FLAGS DCP
INDEX 01 00:00:00
FILE "05 - Ramona's Delight.wav" WAVE
TRACK 05 AUDIO
TITLE "Ramona's Delight"
PERFORMER "Jérôme Berney Quartet"
FLAGS DCP
INDEX 01 00:00:00
FILE "06 - Malcolm B.wav" WAVE
TRACK 06 AUDIO
TITLE "Malcolm B"
PERFORMER "Jérôme Berney Quartet"
FLAGS DCP
INDEX 01 00:00:00
FILE "07 - Rêveries.wav" WAVE
TRACK 07 AUDIO
TITLE "Rêveries"
PERFORMER "Jérôme Berney Quartet"
FLAGS DCP
INDEX 01 00:00:00
По всем вопросам пишите личное сообщение пользователю M0p94ok.
20:41
172
Нет комментариев. Ваш будет первым!