Поиск

(Contemporary Jazz) Paul Brown - City - 2005, FLAC (tracks+.cue), lossless

(Contemporary Jazz) Paul Brown - City - 2005, FLAC (tracks+.cue), lossless
Треклист:
Paul Brown - City
Жанр: Contemporary Jazz
Год выпуска: 2005
Формат: FLAC (tracks+.cue)
Битрейт аудио: lossless
Трэклист:
1. Cosmic Monkey 4:36
2. Hello Again 3:57
3. Side Steppin' 3:34
4. The City 4:58
5. Las Vegas 5:00
6. Old Friends 4:03
7. Winelight 4:38
8. Jumpin' Uptown 4:29
9. Food For The Moon 3:52
10. Real Mutha For Ya 3:42
11. The City 4:58
Зарелизено на rutracker.org
и
Доп. информация:
Audio CD (July 12, 2005)
Original Release Date: July 12, 2005
Number of Discs: 1
Label: Grp Records
 
Лог извлечения EAC
EAC extraction logfile from 24. November 2007, 22:02 for CD
Paul Brown / The City
Used drive : PLEXTOR DVDR PX-760A Adapter: 1 ID: 0
Read mode : Secure with NO C2, accurate stream, disable cache
Read offset correction : 30
Overread into Lead-In and Lead-Out : Yes
Used output format : C:\Program Files\FLAC\flac.exe (User Defined Encoder)
320 kBit/s
Additional command line options : -8 -V -T "ARTIST=%a" -T "TITLE=%t" -T "ALBUM=%g" -T "DATE=%y" -T "TRACKNUMBER=%n" -T "GENRE=%m" -T "COMMENT=EAC FLAC -8" %s
Other options :
Fill up missing offset samples with silence : Yes
Delete leading and trailing silent blocks : No
Native Win32 interface for Win NT & 2000
Track 1
Filename C:\APE\Paul Brown\Paul Brown - 2005 - City\01 - Paul Brown , Cosmic Monkey.wav
Pre-gap length 0:00:02.00
Peak level 97.7 %
Track quality 100.0 %
Test CRC 7459D098
Copy CRC 7459D098
Copy OK
Track 2
Filename C:\APE\Paul Brown\Paul Brown - 2005 - City\02 - Paul Brown , Hello Again.wav
Pre-gap length 0:00:00.60
Peak level 98.5 %
Track quality 100.0 %
Test CRC D9556F8F
Copy CRC D9556F8F
Copy OK
Track 3
Filename C:\APE\Paul Brown\Paul Brown - 2005 - City\03 - Paul Brown , Side Steppin'.wav
Pre-gap length 0:00:00.52
Peak level 99.7 %
Track quality 100.0 %
Test CRC D0354710
Copy CRC D0354710
Copy OK
Track 4
Filename C:\APE\Paul Brown\Paul Brown - 2005 - City\04 - Paul Brown , The City.wav
Pre-gap length 0:00:00.38
Peak level 99.7 %
Track quality 100.0 %
Test CRC E39A7EDB
Copy CRC E39A7EDB
Copy OK
Track 5
Filename C:\APE\Paul Brown\Paul Brown - 2005 - City\05 - Paul Brown , Las Vegas.wav
Pre-gap length 0:00:02.10
Peak level 96.3 %
Track quality 100.0 %
Test CRC 12550A94
Copy CRC 12550A94
Copy OK
Track 6
Filename C:\APE\Paul Brown\Paul Brown - 2005 - City\06 - Paul Brown , Old Friends.wav
Pre-gap length 0:00:01.62
Peak level 97.5 %
Track quality 100.0 %
Test CRC 3ADD84FA
Copy CRC 3ADD84FA
Copy OK
Track 7
Filename C:\APE\Paul Brown\Paul Brown - 2005 - City\07 - Paul Brown , Winelight.wav
Pre-gap length 0:00:01.03
Peak level 99.7 %
Track quality 100.0 %
Test CRC 6203E216
Copy CRC 6203E216
Copy OK
Track 8
Filename C:\APE\Paul Brown\Paul Brown - 2005 - City\08 - Paul Brown , Jumpin' Uptown.wav
Pre-gap length 0:00:02.13
Peak level 97.4 %
Track quality 99.9 %
Test CRC C78922A9
Copy CRC C78922A9
Copy OK
Track 9
Filename C:\APE\Paul Brown\Paul Brown - 2005 - City\09 - Paul Brown , Food For The Moon.wav
Pre-gap length 0:00:01.65
Peak level 97.0 %
Track quality 100.0 %
Test CRC 5756F142
Copy CRC 5756F142
Copy OK
Track 10
Filename C:\APE\Paul Brown\Paul Brown - 2005 - City\10 - Paul Brown , Real Mutha For Ya.wav
Pre-gap length 0:00:02.12
Peak level 99.3 %
Track quality 100.0 %
Test CRC ECCE4D82
Copy CRC ECCE4D82
Copy OK
Track 11
Filename C:\APE\Paul Brown\Paul Brown - 2005 - City\11 - Paul Brown , The City (Instrumental).wav
Pre-gap length 0:00:29.43
Peak level 99.7 %
Track quality 100.0 %
Test CRC 6A0FAF3F
Copy CRC 6A0FAF3F
Copy OK
No errors occured
End of status report
Приватный:
Нет (DHT включён)
Размер:
287.24 Мб (301,197,303 байт) » файлов: 19
Участники:
0 раздают, 0 качают (0 участников всего)
Внешние участники:
3 раздают, 1 качают (4 участников всего) [ Обновить ]
11:33
34
Нет комментариев. Ваш будет первым!