Поиск

(Contemporary Folk / Chamber Jazz / World Music) [WEB] Aurélié Dorzée [Aurelie Dorzee] & Tom Theuns ft. Michel Mass

(Contemporary Folk / Chamber Jazz / World Music) [WEB] Aurélié Dorzée [Aurelie Dorzee] & Tom Theuns ft. Michel Mass
Треклист:

Aurélié Dorzée [Aurelie Dorzee] & Tom Theuns ft. Michel Massot / Elixir
Жанр: Contemporary Folk / Chamber Jazz / World Music
Носитель: WEB
Год издания: 2019
Издатель (лейбл): Web Release [homerecords.be]
Страна исполнителя (группы): Belgium
Аудиокодек: FLAC (*.flac)
Тип рипа: tracks
Продолжительность: 54:29 min
Источник: собственная покупка
Наличие сканов в содержимом раздачи:
Треклист:
1. Ouverture. 0:51
2. Elixir. 4:27
3. Mars. 4:11
4. La Tarantalinea. 4:31
5. Ida. 4:09
6. Organetto. 2:51
7. Nail Box Blues. 4:39
8. Kamazurka. 2:47
9. Mae. 5:27
10. Santur Solis. 3:58
11. Mon arbre. 5:39
12. Indira's Blues. 5:43
13. La Parade des Fous. 5:11

DRM.log
foobar2000 1.4.2 / Замер динамического диапазона (DR) 1.1.1
Дата отчёта: 2019-06-13 02:18:31
--------------------------------------------------------------------------------
Анализ: Aurélié Dorzée & Tom Theuns ft Michel Massot / Elixir
--------------------------------------------------------------------------------
DR Пики RMS Продолжительность трека
--------------------------------------------------------------------------------
DR10 -9.76 дБ -22.56 дБ 0:51 01-Ouverture
DR9 -0.09 дБ -10.80 дБ 4:27 02-Elixir
DR8 -0.01 дБ -10.49 дБ 4:11 03-Mars
DR11 0.00 дБ -14.48 дБ 4:32 04-La tarantalinea
DR8 -0.01 дБ -11.53 дБ 4:09 05-Ida
DR9 -0.41 дБ -11.70 дБ 2:51 06-Organetto
DR10 -0.01 дБ -14.82 дБ 4:39 07-Nail Box Blues
DR12 -0.01 дБ -14.19 дБ 2:47 08-Kamazurka
DR10 0.00 дБ -13.86 дБ 5:27 09-Mae
DR9 -0.09 дБ -12.51 дБ 3:58 10-Santur solis
DR10 -0.01 дБ -13.29 дБ 5:40 11-Mon arbre
DR9 -0.06 дБ -12.42 дБ 5:44 12-Indira's Blues
DR12 -0.02 дБ -15.62 дБ 5:12 13-La parade des fous
--------------------------------------------------------------------------------
Количество треков: 13
Реальные значения DR: DR10
Частота: 44100 Гц
Каналов: 2
Разрядность: 16
Битрейт: 859 кбит/с
Кодек: FLAC
================================================================================
Лог проверки качества
-----------------------
DON'T MODIFY THIS FILE
-----------------------
PERFORMER: auCDtect Task Manager, ver. 1.6.0 RC1 build 1.6.0.1
Copyright (c) 2008-2010 y-soft. All rights reserved
http://y-soft.org
ANALYZER: auCDtect: CD records authenticity detector, version 0.8.2
Copyright (c) 2004 Oleg Berngardt. All rights reserved.
Copyright (c) 2004 Alexander Djourik. All rights reserved.
FILE: 01. Ouverture.flac
Size: 5010499 Hash: B94B8C859321324335DDCBC51BEE30D3 Accuracy: -m0
Conclusion: CDDA 100%
Signature: 2E603972CBEE77B7CEF80314317D542CE9896EC8
FILE: 02. Elixir.flac
Size: 32063746 Hash: 734B3F3491E6BBB1737E9DBDA019247B Accuracy: -m0
Conclusion: CDDA 100%
Signature: F642887F90605BAFCA3EF9A5EF8209DA8190868F
FILE: 03. Mars.flac
Size: 27749408 Hash: 047936BF651C50B351640E14585ADCCF Accuracy: -m0
Conclusion: CDDA 99%
Signature: 9126A7DA455B7BA1A7964E5F020E76446E032D3F
FILE: 04. La tarantalinea.flac
Size: 26850902 Hash: FF07AF425667B258EF468DFA71A8D32C Accuracy: -m0
Conclusion: CDDA 100%
Signature: D511EB215385ACD0209A55D4A94A0A02AACB4058
FILE: 05. Ida.flac
Size: 23970293 Hash: 2D51C7CE39276D43E087358E12055BE3 Accuracy: -m0
Conclusion: CDDA 100%
Signature: 23D3A03521FED7ED6710B0EE34A22292D151C4DB
FILE: 06. Organetto.flac
Size: 18038277 Hash: 92F4AA1E3F92DD9242D3D1659528A5F0 Accuracy: -m0
Conclusion: CDDA 99%
Signature: DF10A3BEEF6C61455908E4FBFC71184DF59E8BA5
FILE: 07. Nail Box Blues.flac
Size: 25847382 Hash: 65AAB5D79BB22E1FDDDD45E6EDFE1E89 Accuracy: -m0
Conclusion: CDDA 100%
Signature: 0D38037BEE0222FC35A1EEDABF5C71BBA42061E2
FILE: 08. Kamazurka.flac
Size: 15879937 Hash: A52EDC32608BA1A1E02FEC52A1309DBB Accuracy: -m0
Conclusion: CDDA 100%
Signature: A9BC219CEC96AFDEA63A0800CD532D2EACEFAB4F
FILE: 09. Mae.flac
Size: 29472945 Hash: C8F40D4D0841B12DCCBFA4029B27B8F9 Accuracy: -m0
Conclusion: CDDA 100%
Signature: CC9654C461EE628FB8DDB4687F5DA20BF7598E9F
FILE: 10. Santur solis.flac
Size: 23542961 Hash: 7B556B174A8905CF9B8D04E30DFF0705 Accuracy: -m0
Conclusion: CDDA 100%
Signature: D2C42EB1ED98B8E1F798AE962ADAE1D9C845BB49
FILE: 11. Mon arbre.flac
Size: 36542557 Hash: 9457D98BF2A6A26BEDDB7CFD07121497 Accuracy: -m0
Conclusion: CDDA 100%
Signature: 666F974EF659B923AE347D2F36AD63B29E3563DF
FILE: 12. Indira's Blues.flac
Size: 37331460 Hash: EE1624CBDC26ED0CAEA52052E0655BA1 Accuracy: -m0
Conclusion: CDDA 100%
Signature: 6852AA06361D1F1F303D7FAE3D20ECAE10542057
FILE: 13. La parade des fous.flac
Size: 33569173 Hash: 995CE87D5B5914A422ABCF2934870C1E Accuracy: -m0
Conclusion: CDDA 100%
Signature: 26CD98D91A36D8C786DBF9FF7BC08C714EFC976B
Об альбоме (сборнике)
Composition: Aurélie Dorzée & Tom Theuns
Enregistrement: eRno le Mentholé & Lucas Lovinfosse
Pochette: Elisa Pirondeau & Kim Scott
released June 7, 2019
Состав
- Aurele Dorzee / Violon, viola d’amore, violon trompette, violon à clou, psaltérion, voix & compositions
- Tom Theuns / Mandoline, mandolauoto, guitare, sitar, banjo, voix & compositions
- Michel Massot / Trombone, euphonium, saxhorn alto & susaphone
Download available for power users only.
11:00
81
Нет комментариев. Ваш будет первым!