Поиск

(Classical crossover, Jazz Vocal) [CD] Swingle Singers - Best Of The Classic Years - 2003 (Helicon), FLAC (tracks+.cue), lossless

(Classical crossover, Jazz Vocal) [CD] Swingle Singers - Best Of The Classic Years - 2003 (Helicon), FLAC (tracks+.cue), lossless
Треклист:
Жанр: Classical crossover, Jazz Vocal
Носитель: CD (compilation)
Страна-производитель диска (релиза): Israel
Год издания оригинала: 2003
Издатель (лейбл): Helicon
Номер по каталогу: 9810963
Страна исполнителя (группы) : France
Аудио кодек: FLAC (*.flac)
Тип рипа: (tracks + .cue)
Битрейт аудио: lossless
Наличие сканов в содержимом раздачи: full scans, png, 300 dpi
Продолжительность: 42:47
Источник (релизер): Musicgate
Трэклист:
1. Sinfonia (Partita No.2 in С minor, BWV826) (Johann Sebastian Bach) (P) 1963
2. Choral No. 1 "Wake, Alise, The Voices Call Us" (Schubler's Book, BWV 645) (Johann Sebastian Bach) (P) 1963
3. Waltz op. 64 No. 2 in С sharp minor (Frederic Chopin) (P) 1967
4. Choral "Jesus, Joy of Man's Desiring" (Cantate BWV 147) (Johann Sebastian Bach) (P) 1968
5. Piano Sonata No. 15 in С major K.545 - Allegro (Wolfgang Amadeus Mozart) (P) 1965
6. Prelude and Fugue No. 1 in С major (The Well- tempered Clavier, Book 1, BWV 846) (Johann Sebastian Bach) (P) 1968
7. The Swingle Singers & The Modern Jazz Quartet - Little David's Fugue (J. Lewis) (P) 1966
8. Aria (Orchestral Suite No. 3 in D major, BWV 1068) (Johann Sebastian Bach) P) 1963
9. Fugue (Sonata for violin and piano No. 37 in A major, K.402) (Wolfgang Amadeus Mozart) (P) 1965
10. Serenade No. 13 "Eine Kleine Nachtmusik" in G major, "Eine Kleine Nachtmusik" K.525 - Romance (Wolfgang Amadeus Mozart) (P) 1965
11. Badinerie (Suite No. 2 in В minor, BWV 1067) (Johann Sebastian Bach) (P) 1964
12. Scherzo (Sonata for violin and piano op. 24 No. 5 in F major "Spring") (Ludwig van Beethoven) (P) 1967
13. Fugue No. 2 in С minor (The Well-tempered Clavier, Book2, BWV871) (Johann Sebastian Bach) (P) 1963
14. Vivace (Concerto for two violins in D minor, BWV 1043) (Johann Sebastian Bach) (P) 1968
15. Presto (Trio Sonata in E major) (Georg Philipp Telemann) (P) 1966
16. Gavotte (Partita No. 3 for violin in E major, BWV 1006) (Johann Sebastian Bach) (P) 1968
 
Лог создания рипа
Exact Audio Copy V1.3 from 2. September 2016
EAC extraction logfile from 14. January 2018, 7:00
Best Of The Classic Years / Swingle Singers
Used drive  : HL-DT-STDVDRAM GH24NSB0   Adapter: 1  ID: 0
Read mode               : Secure
Utilize accurate stream : Yes
Defeat audio cache      : Yes
Make use of C2 pointers : No
Read offset correction                      : 6
Overread into Lead-In and Lead-Out          : No
Fill up missing offset samples with silence : Yes
Delete leading and trailing silent blocks   : No
Null samples used in CRC calculations       : Yes
Used interface                              : Native Win32 interface for Win NT & 2000
Gap handling                                : Appended to previous track
Used output format              : User Defined Encoder
Selected bitrate                : 1024 kBit/s
Quality                         : High
Add ID3 tag                     : No
Command line compressor         : C:\Program Files (x86)\Exact Audio Copy\FLAC\FLAC.EXE
Additional command line options : -V -8 -T "Genre=%genre%" -T "Artist=%artist%" -T "Title=%title%" -T "Album=%albumtitle%" -T "Date=%year%" -T "Tracknumber=%tracknr%" -T "Comment=%comment%" %source%
TOC of the extracted CD
     Track |   Start  |  Length  | Start sector | End sector
    ---------------------------------------------------------
        1  |  0:00.00 |  3:35.71 |         0    |    16195
        2  |  3:35.71 |  2:39.48 |     16196    |    28168
        3  |  6:15.44 |  3:14.73 |     28169    |    42791
        4  |  9:30.42 |  3:21.05 |     42792    |    57871
        5  | 12:51.47 |  2:10.04 |     57872    |    67625
        6  | 15:01.51 |  3:22.63 |     67626    |    82838
        7  | 18:24.39 |  4:17.51 |     82839    |   102164
        8  | 22:42.15 |  3:19.18 |    102165    |   117107
        9  | 26:01.33 |  2:52.71 |    117108    |   130078
       10  | 28:54.29 |  2:47.00 |    130079    |   142603
       11  | 31:41.29 |  1:19.69 |    142604    |   148597
       12  | 33:01.23 |  1:13.22 |    148598    |   154094
       13  | 34:14.45 |  1:17.63 |    154095    |   159932
       14  | 35:32.33 |  3:19.06 |    159933    |   174863
       15  | 38:51.39 |  1:25.48 |    174864    |   181286
       16  | 40:17.12 |  2:30.47 |    181287    |   192583
Track  1
     Filename D:\Music\MG rips\Swingle Singers - Best Of The Classic Years - 2003 (Helicon) [FLAC]\01 - Sinfonia.wav
     Pre-gap length  0:00:02.00
     Peak level 98.8 %
     Extraction speed 1.1 X
     Track quality 100.0 %
     Test CRC A347F8C1
     Copy CRC A347F8C1
     Accurately ripped (confidence 1)  [7323864B]  (AR v2)
     Copy OK
Track  2
     Filename D:\Music\MG rips\Swingle Singers - Best Of The Classic Years - 2003 (Helicon) [FLAC]\02 - Choral No. 1.wav
     Pre-gap length  0:00:02.00
     Peak level 98.8 %
     Extraction speed 1.1 X
     Track quality 100.0 %
     Test CRC 2C7B1036
     Copy CRC 2C7B1036
     Accurately ripped (confidence 1)  [C425A6DF]  (AR v2)
     Copy OK
Track  3
     Filename D:\Music\MG rips\Swingle Singers - Best Of The Classic Years - 2003 (Helicon) [FLAC]\03 - Waltz.wav
     Pre-gap length  0:00:02.00
     Peak level 97.7 %
     Extraction speed 1.2 X
     Track quality 100.0 %
     Test CRC BF96884D
     Copy CRC BF96884D
     Accurately ripped (confidence 1)  [5862B38D]  (AR v2)
     Copy OK
Track  4
     Filename D:\Music\MG rips\Swingle Singers - Best Of The Classic Years - 2003 (Helicon) [FLAC]\04 - Choral.wav
     Pre-gap length  0:00:02.00
     Peak level 97.6 %
     Extraction speed 1.3 X
     Track quality 100.0 %
     Test CRC 10F689EC
     Copy CRC 10F689EC
     Accurately ripped (confidence 1)  [A7AE2B01]  (AR v2)
     Copy OK
Track  5
     Filename D:\Music\MG rips\Swingle Singers - Best Of The Classic Years - 2003 (Helicon) [FLAC]\05 - Piano Sonata No. 15 in C major.wav
     Pre-gap length  0:00:02.00
     Peak level 98.8 %
     Extraction speed 1.3 X
     Track quality 100.0 %
     Test CRC B9E4418A
     Copy CRC B9E4418A
     Accurately ripped (confidence 1)  [EADE68DC]  (AR v2)
     Copy OK
Track  6
     Filename D:\Music\MG rips\Swingle Singers - Best Of The Classic Years - 2003 (Helicon) [FLAC]\06 - Prelude and FugueNo. 1 in C major.wav
     Pre-gap length  0:00:02.00
     Peak level 98.8 %
     Extraction speed 1.3 X
     Track quality 99.9 %
     Test CRC 9A3EC7F4
     Copy CRC 9A3EC7F4
     Accurately ripped (confidence 1)  [D00415AE]  (AR v2)
     Copy OK
Track  7
     Filename D:\Music\MG rips\Swingle Singers - Best Of The Classic Years - 2003 (Helicon) [FLAC]\07 - Little David's Fugue.wav
     Pre-gap length  0:00:02.00
     Peak level 98.8 %
     Extraction speed 1.6 X
     Track quality 100.0 %
     Test CRC 65FB311B
     Copy CRC 65FB311B
     Accurately ripped (confidence 1)  [53C01105]  (AR v2)
     Copy OK
Track  8
     Filename D:\Music\MG rips\Swingle Singers - Best Of The Classic Years - 2003 (Helicon) [FLAC]\08 - Aria.wav
     Pre-gap length  0:00:02.00
     Peak level 96.3 %
     Extraction speed 1.6 X
     Track quality 100.0 %
     Test CRC D287D460
     Copy CRC D287D460
     Accurately ripped (confidence 1)  [EC00D94D]  (AR v2)
     Copy OK
Track  9
     Filename D:\Music\MG rips\Swingle Singers - Best Of The Classic Years - 2003 (Helicon) [FLAC]\09 - Fugue.wav
     Pre-gap length  0:00:02.00
     Peak level 98.8 %
     Extraction speed 1.4 X
     Track quality 99.9 %
     Test CRC 7A062EC2
     Copy CRC 7A062EC2
     Accurately ripped (confidence 1)  [BEAEEF40]  (AR v2)
     Copy OK
Track 10
     Filename D:\Music\MG rips\Swingle Singers - Best Of The Classic Years - 2003 (Helicon) [FLAC]\10 - Eine Kleine Nachtmusic.wav
     Pre-gap length  0:00:02.00
     Peak level 98.8 %
     Extraction speed 1.4 X
     Track quality 99.9 %
     Test CRC 6D77E347
     Copy CRC 6D77E347
     Accurately ripped (confidence 1)  [44D41117]  (AR v2)
     Copy OK
Track 11
     Filename D:\Music\MG rips\Swingle Singers - Best Of The Classic Years - 2003 (Helicon) [FLAC]\11 - Badinerie.wav
     Pre-gap length  0:00:02.00
     Peak level 98.8 %
     Extraction speed 1.4 X
     Track quality 100.0 %
     Test CRC 3BD92649
     Copy CRC 3BD92649
     Accurately ripped (confidence 1)  [6ACCEAAF]  (AR v2)
     Copy OK
Track 12
     Filename D:\Music\MG rips\Swingle Singers - Best Of The Classic Years - 2003 (Helicon) [FLAC]\12 - Scherzo.wav
     Pre-gap length  0:00:02.00
     Peak level 98.8 %
     Extraction speed 1.4 X
     Track quality 100.0 %
     Test CRC 850746F9
     Copy CRC 850746F9
     Accurately ripped (confidence 1)  [8CABFB19]  (AR v2)
     Copy OK
Track 13
     Filename D:\Music\MG rips\Swingle Singers - Best Of The Classic Years - 2003 (Helicon) [FLAC]\13 - Fugue No. 2 in C minor.wav
     Pre-gap length  0:00:02.00
     Peak level 98.8 %
     Extraction speed 1.4 X
     Track quality 100.0 %
     Test CRC F776BF4C
     Copy CRC F776BF4C
     Accurately ripped (confidence 1)  [E32D77EC]  (AR v2)
     Copy OK
Track 14
     Filename D:\Music\MG rips\Swingle Singers - Best Of The Classic Years - 2003 (Helicon) [FLAC]\14 - Vivace.wav
     Pre-gap length  0:00:02.00
     Peak level 98.8 %
     Extraction speed 1.8 X
     Track quality 100.0 %
     Test CRC B539ED3A
     Copy CRC B539ED3A
     Accurately ripped (confidence 1)  [369F80D3]  (AR v2)
     Copy OK
Track 15
     Filename D:\Music\MG rips\Swingle Singers - Best Of The Classic Years - 2003 (Helicon) [FLAC]\15 - Presto.wav
     Pre-gap length  0:00:02.00
     Peak level 100.0 %
     Extraction speed 1.2 X
     Track quality 99.8 %
     Test CRC 40467E16
     Copy CRC 40467E16
     Accurately ripped (confidence 1)  [F5D6AC65]  (AR v2)
     Copy OK
Track 16
     Filename D:\Music\MG rips\Swingle Singers - Best Of The Classic Years - 2003 (Helicon) [FLAC]\16 - Gavotte.wav
     Pre-gap length  0:00:00.55
     Peak level 98.8 %
     Extraction speed 1.8 X
     Track quality 100.0 %
     Test CRC 6015D09F
     Copy CRC 6015D09F
     Accurately ripped (confidence 1)  [6DE8E41B]  (AR v2)
     Copy OK
All tracks accurately ripped
No errors occurred
End of status report
==== Log checksum 101EBD37BA126F8814961257AAEBBD657E3E57790566E6D56A1B07FFA4787F04 ====
 
Содержание индексной карты (.CUE):
REM GENRE "Vocal jazz"
REM DATE 2003
REM DISCID D20A0710
REM COMMENT "ExactAudioCopy v1.3"
PERFORMER "Best Of The Classic Years"
TITLE "Swingle Singers"
REM COMPOSER ""
FILE "01 - Sinfonia.wav" WAVE
  TRACK 01 AUDIO
    TITLE "Sinfonia"
    PERFORMER "Best Of The Classic Years"
    REM COMPOSER ""
    INDEX 01 00:00:00
  TRACK 02 AUDIO
    TITLE "Choral No. 1"
    PERFORMER "Best Of The Classic Years"
    REM COMPOSER ""
    INDEX 00 03:33:71
FILE "02 - Choral No. 1.wav" WAVE
    INDEX 01 00:00:00
  TRACK 03 AUDIO
    TITLE "Waltz"
    PERFORMER "Best Of The Classic Years"
    REM COMPOSER ""
    INDEX 00 02:37:48
FILE "03 - Waltz.wav" WAVE
    INDEX 01 00:00:00
  TRACK 04 AUDIO
    TITLE "Choral"
    PERFORMER "Best Of The Classic Years"
    REM COMPOSER ""
    INDEX 00 03:12:73
FILE "04 - Choral.wav" WAVE
    INDEX 01 00:00:00
  TRACK 05 AUDIO
    TITLE "Piano Sonata No. 15 in C major"
    PERFORMER "Best Of The Classic Years"
    REM COMPOSER ""
    INDEX 00 03:19:05
FILE "05 - Piano Sonata No. 15 in C major.wav" WAVE
    INDEX 01 00:00:00
  TRACK 06 AUDIO
    TITLE "Prelude and FugueNo. 1 in C major"
    PERFORMER "Best Of The Classic Years"
    REM COMPOSER ""
    INDEX 00 02:08:04
FILE "06 - Prelude and FugueNo. 1 in C major.wav" WAVE
    INDEX 01 00:00:00
  TRACK 07 AUDIO
    TITLE "Little David's Fugue"
    PERFORMER "Best Of The Classic Years"
    REM COMPOSER ""
    INDEX 00 03:20:63
FILE "07 - Little David's Fugue.wav" WAVE
    INDEX 01 00:00:00
  TRACK 08 AUDIO
    TITLE "Aria"
    PERFORMER "Best Of The Classic Years"
    REM COMPOSER ""
    INDEX 00 04:15:51
FILE "08 - Aria.wav" WAVE
    INDEX 01 00:00:00
  TRACK 09 AUDIO
    TITLE "Fugue"
    PERFORMER "Best Of The Classic Years"
    REM COMPOSER ""
    INDEX 00 03:17:18
FILE "09 - Fugue.wav" WAVE
    INDEX 01 00:00:00
  TRACK 10 AUDIO
    TITLE "Eine Kleine Nachtmusic"
    PERFORMER "Best Of The Classic Years"
    REM COMPOSER ""
    INDEX 00 02:50:71
FILE "10 - Eine Kleine Nachtmusic.wav" WAVE
    INDEX 01 00:00:00
  TRACK 11 AUDIO
    TITLE "Badinerie"
    PERFORMER "Best Of The Classic Years"
    REM COMPOSER ""
    INDEX 00 02:45:00
FILE "11 - Badinerie.wav" WAVE
    INDEX 01 00:00:00
  TRACK 12 AUDIO
    TITLE "Scherzo"
    PERFORMER "Best Of The Classic Years"
    REM COMPOSER ""
    INDEX 00 01:17:69
FILE "12 - Scherzo.wav" WAVE
    INDEX 01 00:00:00
  TRACK 13 AUDIO
    TITLE "Fugue No. 2 in C minor"
    PERFORMER "Best Of The Classic Years"
    REM COMPOSER ""
    INDEX 00 01:11:22
FILE "13 - Fugue No. 2 in C minor.wav" WAVE
    INDEX 01 00:00:00
  TRACK 14 AUDIO
    TITLE "Vivace"
    PERFORMER "Best Of The Classic Years"
    REM COMPOSER ""
    INDEX 00 01:15:63
FILE "14 - Vivace.wav" WAVE
    INDEX 01 00:00:00
  TRACK 15 AUDIO
    TITLE "Presto"
    PERFORMER "Best Of The Classic Years"
    REM COMPOSER ""
    INDEX 00 03:17:06
FILE "15 - Presto.wav" WAVE
    INDEX 01 00:00:00
  TRACK 16 AUDIO
    TITLE "Gavotte"
    PERFORMER "Best Of The Classic Years"
    REM COMPOSER ""
    INDEX 00 01:24:68
FILE "16 - Gavotte.wav" WAVE
    INDEX 01 00:00:00
 
Лог проверки качества
 
Лог CUETools
[CUETools log; Date: 2/27/2018 7:30:36 AM; Version: 2.1.5]
[CTDB TOCID: 4czuRKWKrxbAt7P4uAS560mZlL0-] disk not present in database.
[AccurateRip ID: 001b729b-01425e50-d20a0710] found.
Track   [  CRC   |   V2   ] Status
 01     [557ec165|7323864b] (0+1/1) Accurately ripped
 02     [1960f325|c425a6df] (0+1/1) Accurately ripped
 03     [83f925bc|5862b38d] (0+1/1) Accurately ripped
 04     [884de9cc|a7ae2b01] (0+1/1) Accurately ripped
 05     [2c8f40a3|eade68dc] (0+1/1) Accurately ripped
 06     [5dd147ee|d00415ae] (0+1/1) Accurately ripped
 07     [3278dc11|53c01105] (0+1/1) Accurately ripped
 08     [69a769a1|ec00d94d] (0+1/1) Accurately ripped
 09     [9ed156d6|beaeef40] (0+1/1) Accurately ripped
 10     [d730f1fa|44d41117] (0+1/1) Accurately ripped
 11     [b428e79d|6acceaaf] (0+1/1) Accurately ripped
 12     [c0da0bd7|8cabfb19] (0+1/1) Accurately ripped
 13     [6a14e3af|e32d77ec] (0+1/1) Accurately ripped
 14     [d1ddf6f8|369f80d3] (0+1/1) Accurately ripped
 15     [ea082ff2|f5d6ac65] (0+1/1) Accurately ripped
 16     [bda86dc8|6de8e41b] (0+1/1) Accurately ripped
Track Peak [ CRC32  ] [W/O NULL] [  LOG   ]
 --  100.0 [02C8A36B] [ADF833F3]
 01   98.8 [A347F8C1] [CC1406E8]   CRC32
 02   98.8 [2C7B1036] [1EFA9382]   CRC32
 03   97.7 [BF96884D] [00CCBC0F]   CRC32
 04   97.6 [10F689EC] [E83508A3]   CRC32
 05   98.8 [B9E4418A] [121B2F83]   CRC32
 06   98.8 [9A3EC7F4] [1786AD05]   CRC32
 07   98.8 [65FB311B] [3AFE17A2]   CRC32
 08   96.3 [D287D460] [F0683E34]   CRC32
 09   98.8 [7A062EC2] [2F38DE44]   CRC32
 10   98.8 [6D77E347] [B80661DD]   CRC32
 11   98.8 [3BD92649] [70FBBBBF]   CRC32
 12   98.8 [850746F9] [472CC5CF]   CRC32
 13   98.8 [F776BF4C] [32F5EF98]   CRC32
 14   98.8 [B539ED3A] [4D4FEDB1]   CRC32
 15  100.0 [40467E16] [61268C2A]   CRC32
 16   98.8 [6015D09F] [D02BD2B0]   CRC32
 
Замер динамического диапазона
foobar2000 1.3.10 / Замер динамического диапазона (DR) 1.1.1
Дата отчёта:  2018-03-10 20:57:22
--------------------------------------------------------------------------------
Анализ:   Best Of The Classic Years / Swingle Singers
--------------------------------------------------------------------------------
DR         Пики         RMS           Продолжительность трека
--------------------------------------------------------------------------------
DR11      -0.10 дБ   -13.69 дБ      3:36 01-Sinfonia
DR10      -0.10 дБ   -13.39 дБ      2:40 02-Choral No. 1
DR12      -0.19 дБ   -15.48 дБ      3:15 03-Waltz
DR11      -0.20 дБ   -12.99 дБ      3:21 04-Choral
DR12      -0.10 дБ   -14.33 дБ      2:10 05-Piano Sonata No. 15 in C major
DR11      -0.10 дБ   -14.75 дБ      3:23 06-Prelude and FugueNo. 1 in C major
DR11      -0.10 дБ   -13.03 дБ      4:18 07-Little David's Fugue
DR10      -0.32 дБ   -13.57 дБ      3:19 08-Aria
DR11      -0.10 дБ   -15.41 дБ      2:53 09-Fugue
DR11      -0.10 дБ   -14.73 дБ      2:47 10-Eine Kleine Nachtmusic
DR8       -0.10 дБ   -11.05 дБ      1:20 11-Badinerie
DR13      -0.10 дБ   -15.67 дБ      1:13 12-Scherzo
DR10      -0.10 дБ   -12.08 дБ      1:18 13-Fugue No. 2 in C minor
DR10      -0.10 дБ   -14.06 дБ      3:19 14-Vivace
DR10       0.00 дБ   -13.51 дБ      1:26 15-Presto
DR12      -0.10 дБ   -14.04 дБ      2:31 16-Gavotte
--------------------------------------------------------------------------------
Количество треков: 16
Реальные значения DR: DR11
Частота:   44100 Гц
Каналов:   2
Разрядность:   16
Битрейт:   803 кбит/с
Кодек:   FLAC
================================================================================
Скачивание доступно после регистрации!!
Приватный:
Нет (DHT включён)
Размер:
265.07 Мб (277,941,956 байт) » файлов: 25
Участники:
0 раздают, 0 качают (0 участников всего)
Внешние участники:
7 раздают, 2 качают (9 участников всего) [ Обновить ]
06:53
10
Нет комментариев. Ваш будет первым!