Поиск

(Brass-band, fusion, hip-hop, soul-jazz, funk, jazz-funk, dub) The Apples - Collection - 5 альбомов - 2005; 2008; 2012; 2010; 2003, FLAC (tracks+.cue), lossless

(Brass-band, fusion, hip-hop, soul-jazz, funk, jazz-funk, dub) The Apples - Collection - 5 альбомов - 2005; 2008; 2012; 2010; 2003, FLAC (tracks+.cue), lossless
Треклист:





The Apples - Collection - 5 альбомов - 2005; 2008; 2012; 2010; 2003

Страна исполнителя: Israel
Жанр: Brass-band, fusion, hip-hop, soul-jazz, funk, jazz-funk, dub || Аудио кодек: FLAC || Тип рипа: (tracks + .cue) || Битрейт аудио: lossless || Включает: Full artwork || Общая длительность: 3:59:30 || Источник : Моя коллекция, мои рипы
 
Mitz (Сок) - 2003 (1:05:31)
Страна - производитель диска: Israel
Издатель (лейбл): Audio Montage
Номер по каталогу: AMCD002
Трэклист:
1 ...The Journey Continues 5:20
2 Ze Ra'ayon Tov 5:01
3 Artour De Force 5:07
4 Freak Afrique 7:33
5 Benzedrine 6:40
6 30 Shekel 6:31
7 Breathe
Featuring – MC Goga
5:41
8 Jewfro 5:44
9 Everybody 8:32
10 Keep The Faith 9:26
Recorded at The Box Studios, Ramat Gam, 16.10.2003, By Ido Manor and Mixmonster.
Addition recording at Sigma Studios, Tel Aviv 19.10.2003, by Mixmonster.
 
Лог создания рипа
Exact Audio Copy V1.0 beta 2 from 29. April 2011
EAC extraction logfile from 27. June 2011, 17:20
The Apples / Mitz
Used drive : HL-DT-STDVD-RAM GH22NP20 Adapter: 0 ID: 0
Read mode : Secure
Utilize accurate stream : Yes
Defeat audio cache : Yes
Make use of C2 pointers : No
Read offset correction : 102
Overread into Lead-In and Lead-Out : No
Fill up missing offset samples with silence : Yes
Delete leading and trailing silent blocks : No
Null samples used in CRC calculations : Yes
Used interface : Native Win32 interface for Win NT & 2000
Gap handling : Appended to previous track
Used output format : User Defined Encoder
Selected bitrate : 1024 kBit/s
Quality : High
Add ID3 tag : No
Command line compressor : C:\Program Files\Exact Audio Copy\Flac\flac.exe
Additional command line options : -8 -V -T "ARTIST=%artist%" -T "TITLE=%title%" -T "ALBUM=%albumtitle%" -T "DATE=%year%" -T "TRACKNUMBER=%tracknr%" -T "GENRE=%genre%" -T "PERFORMER=%albuminterpret%" -T "COMMENT=EAC V1.0 beta 2, Secure Mode, Test & Copy, Acc
TOC of the extracted CD
Track | Start | Length | Start sector | End sector
---------------------------------------------------------
1 | 0:00.00 | 5:19.55 | 0 | 23979
2 | 5:19.55 | 5:01.15 | 23980 | 46569
3 | 10:20.70 | 5:06.46 | 46570 | 69565
4 | 15:27.41 | 7:33.29 | 69566 | 103569
5 | 23:00.70 | 6:39.25 | 103570 | 133519
6 | 29:40.20 | 6:30.26 | 133520 | 162795
7 | 36:10.46 | 5:40.66 | 162796 | 188361
8 | 41:51.37 | 5:41.38 | 188362 | 213974
9 | 47:33.00 | 8:27.30 | 213975 | 252029
10 | 56:00.30 | 9:30.45 | 252030 | 294824
Track 1
Filename D:\music\Musicgate's rips\The Apples - Mitz - 2003\01 - ... The Journey Continues.wav
Pre-gap length 0:00:02.00
Peak level 100.0 %
Extraction speed 1.6 X
Track quality 100.0 %
Test CRC 61174A35
Copy CRC 61174A35
Track not present in AccurateRip database
Copy OK
Track 2
Filename D:\music\Musicgate's rips\The Apples - Mitz - 2003\02 - It's Good Idea.wav
Peak level 100.0 %
Extraction speed 1.8 X
Track quality 100.0 %
Test CRC 9F980268
Copy CRC 9F980268
Track not present in AccurateRip database
Copy OK
Track 3
Filename D:\music\Musicgate's rips\The Apples - Mitz - 2003\03 - Artour De Force.wav
Peak level 100.0 %
Extraction speed 2.0 X
Track quality 100.0 %
Test CRC E60F4789
Copy CRC E60F4789
Track not present in AccurateRip database
Copy OK
Track 4
Filename D:\music\Musicgate's rips\The Apples - Mitz - 2003\04 - Freak Afrique.wav
Peak level 100.0 %
Extraction speed 2.4 X
Track quality 100.0 %
Test CRC 6E9B7BF4
Copy CRC 6E9B7BF4
Track not present in AccurateRip database
Copy OK
Track 5
Filename D:\music\Musicgate's rips\The Apples - Mitz - 2003\05 - Benzendrine.wav
Peak level 100.0 %
Extraction speed 2.6 X
Track quality 100.0 %
Test CRC 8F27242E
Copy CRC 8F27242E
Track not present in AccurateRip database
Copy OK
Track 6
Filename D:\music\Musicgate's rips\The Apples - Mitz - 2003\06 - 30 Shekel.wav
Peak level 100.0 %
Extraction speed 2.7 X
Track quality 100.0 %
Test CRC 5B3E0B68
Copy CRC 5B3E0B68
Track not present in AccurateRip database
Copy OK
Track 7
Filename D:\music\Musicgate's rips\The Apples - Mitz - 2003\07 - Breathe, feat. MC Goga.wav
Peak level 100.0 %
Extraction speed 2.8 X
Track quality 100.0 %
Test CRC EBD51B57
Copy CRC EBD51B57
Track not present in AccurateRip database
Copy OK
Track 8
Filename D:\music\Musicgate's rips\The Apples - Mitz - 2003\08 - Jenfro.wav
Peak level 100.0 %
Extraction speed 3.0 X
Track quality 100.0 %
Test CRC 63CB1D03
Copy CRC 63CB1D03
Track not present in AccurateRip database
Copy OK
Track 9
Filename D:\music\Musicgate's rips\The Apples - Mitz - 2003\09 - Everybody.wav
Peak level 100.0 %
Extraction speed 3.3 X
Track quality 100.0 %
Test CRC 3557A6A4
Copy CRC 3557A6A4
Track not present in AccurateRip database
Copy OK
Track 10
Filename D:\music\Musicgate's rips\The Apples - Mitz - 2003\10 - Keep The Faith.wav
Peak level 100.0 %
Extraction speed 3.5 X
Track quality 100.0 %
Test CRC C733BBC0
Copy CRC C733BBC0
Track not present in AccurateRip database
Copy OK
None of the tracks are present in the AccurateRip database
No errors occurred
End of status report
==== Log checksum 7BB3211AF4DB4553E11B5EBAF05A88664EC22E25D85C3A66EF7BA6FC43C353D1 ====
 
Содержание индексной карты (.CUE):
REM GENRE Fusion
REM DATE 2003
REM DISCID 7F0F5B0A
REM COMMENT "ExactAudioCopy v1.0b2"
PERFORMER "The Apples"
TITLE "Mitz"
FILE "01 - ... The Journey Continues.wav" WAVE
TRACK 01 AUDIO
TITLE "... The Journey Continues"
PERFORMER "The Apples"
FLAGS DCP
INDEX 01 00:00:00
FILE "02 - It's Good Idea.wav" WAVE
TRACK 02 AUDIO
TITLE "It's Good Idea"
PERFORMER "The Apples"
FLAGS DCP
INDEX 01 00:00:00
FILE "03 - Artour De Force.wav" WAVE
TRACK 03 AUDIO
TITLE "Artour De Force"
PERFORMER "The Apples"
FLAGS DCP
INDEX 01 00:00:00
FILE "04 - Freak Afrique.wav" WAVE
TRACK 04 AUDIO
TITLE "Freak Afrique"
PERFORMER "The Apples"
FLAGS DCP
INDEX 01 00:00:00
FILE "05 - Benzendrine.wav" WAVE
TRACK 05 AUDIO
TITLE "Benzendrine"
PERFORMER "The Apples"
FLAGS DCP
INDEX 01 00:00:00
FILE "06 - 30 Shekel.wav" WAVE
TRACK 06 AUDIO
TITLE "30 Shekel"
PERFORMER "The Apples"
FLAGS DCP
INDEX 01 00:00:00
FILE "07 - Breathe, feat. MC Goga.wav" WAVE
TRACK 07 AUDIO
TITLE "Breathe, feat. MC Goga"
PERFORMER "The Apples"
FLAGS DCP
INDEX 01 00:00:00
FILE "08 - Jenfro.wav" WAVE
TRACK 08 AUDIO
TITLE "Jenfro"
PERFORMER "The Apples"
FLAGS DCP
INDEX 01 00:00:00
FILE "09 - Everybody.wav" WAVE
TRACK 09 AUDIO
TITLE "Everybody"
PERFORMER "The Apples"
FLAGS DCP
INDEX 01 00:00:00
FILE "10 - Keep The Faith.wav" WAVE
TRACK 10 AUDIO
TITLE "Keep The Faith"
PERFORMER "The Apples"
FLAGS DCP
INDEX 01 00:00:00
 
Лог проверки качества
 
Замер динамического диапазона
foobar2000 1.3.10 / Замер динамического диапазона (DR) 1.1.1
Дата отчёта: 2018-01-01 14:48:30
--------------------------------------------------------------------------------
Анализ: The Apples / Mitz
--------------------------------------------------------------------------------
DR Пики RMS Продолжительность трека
--------------------------------------------------------------------------------
DR9 0.00 дБ -11.97 дБ 5:20 01-... The Journey Continues
DR12 0.00 дБ -14.09 дБ 5:01 02-It's Good Idea
DR10 0.00 дБ -11.77 дБ 5:07 03-Artour De Force
DR11 0.00 дБ -12.92 дБ 7:33 04-Freak Afrique
DR10 0.00 дБ -12.69 дБ 6:39 05-Benzendrine
DR12 0.00 дБ -14.41 дБ 6:30 06-30 Shekel
DR10 0.00 дБ -12.89 дБ 5:41 07-Breathe, feat. MC Goga
DR10 0.00 дБ -12.10 дБ 5:42 08-Jenfro
DR12 0.00 дБ -14.02 дБ 8:27 09-Everybody
DR11 0.00 дБ -14.02 дБ 9:31 10-Keep The Faith
--------------------------------------------------------------------------------
Количество треков: 10
Реальные значения DR: DR11
Частота: 44100 Гц
Каналов: 2
Разрядность: 16
Битрейт: 843 кбит/с
Кодек: FLAC
================================================================================

 
Диск
 
Матрица
 
Back
 
Состав
Alto Saxophone, Baritone Saxophone – Oleg Nayman
Double Bass – Shai Ran
Drums – Yoni Halevy
Flugelhorn, Trumpet – Arthur Krasnobaev
Producer – The Apples
Recorded By – Ido Manor, Mixmonster
Soprano Saxophone, Tenor Saxophone – Noam Dorembous
Sound – Mixmonster
Tenor Saxophone – Yaron Semiat
Trombone – Yaron Ouzana
Turntables – DJ Todres, Schoolmaster
 
Attention - 2005 (43:37)
Страна - производитель диска: Israel
Издатель (лейбл): Audio Montage
Номер по каталогу: AMCD003
Трэклист:
1 Chemical Sniffer 4:55
2 Attention! 3:34
3 The Bulgarians 5:09
4 Elias 4:23
5 Thirst 4:11
6 Shakin' 5:09
7 Kidney Stone 5:35
8 Natri Ba Makom 3:59
9 Woo!!! 6:39
 
Лог создания рипа
Exact Audio Copy V1.3 from 2. September 2016
EAC extraction logfile from 9. March 2017, 5:55
The Apples / Attention!
Used drive : HL-DT-STDVDRAM GSA-T50N Adapter: 1 ID: 0
Read mode : Secure
Utilize accurate stream : Yes
Defeat audio cache : Yes
Make use of C2 pointers : No
Read offset correction : 667
Overread into Lead-In and Lead-Out : No
Fill up missing offset samples with silence : Yes
Delete leading and trailing silent blocks : No
Null samples used in CRC calculations : Yes
Used interface : Native Win32 interface for Win NT & 2000
Gap handling : Appended to previous track
Used output format : User Defined Encoder
Selected bitrate : 1024 kBit/s
Quality : High
Add ID3 tag : No
Command line compressor : C:\Program Files\Exact Audio Copy\Flac\flac.exe
Additional command line options : -V -8 -T "Genre=%genre%" -T "Artist=%artist%" -T "Title=%title%" -T "Album=%albumtitle%" -T "Date=%year%" -T "Tracknumber=%tracknr%" %source% -o %dest%
TOC of the extracted CD
Track | Start | Length | Start sector | End sector
---------------------------------------------------------
1 | 0:00.00 | 4:55.04 | 0 | 22128
2 | 4:55.04 | 3:34.34 | 22129 | 38212
3 | 8:29.38 | 5:09.16 | 38213 | 61403
4 | 13:38.54 | 4:23.38 | 61404 | 81166
5 | 18:02.17 | 4:11.67 | 81167 | 100058
6 | 22:14.09 | 5:09.14 | 100059 | 123247
7 | 27:23.23 | 5:35.39 | 123248 | 148411
8 | 32:58.62 | 3:59.29 | 148412 | 166365
9 | 36:58.16 | 6:39.08 | 166366 | 196298
Track 1
Filename C:\New rips\The Apples - Attention - 2005 (Audio Montage) [FLAC]\01 - Chemical Sniffer.wav
Pre-gap length 0:00:02.00
Peak level 98.7 %
Extraction speed 2.5 X
Track quality 100.0 %
Test CRC 27A3708D
Copy CRC 27A3708D
Accurately ripped (confidence 3) [71B0FC7D] (AR v2)
Copy OK
Track 2
Filename C:\New rips\The Apples - Attention - 2005 (Audio Montage) [FLAC]\02 - Attention!.wav
Peak level 98.7 %
Extraction speed 2.3 X
Track quality 99.9 %
Test CRC DB6E26C4
Copy CRC DB6E26C4
Accurately ripped (confidence 3) [0AE00662] (AR v2)
Copy OK
Track 3
Filename C:\New rips\The Apples - Attention - 2005 (Audio Montage) [FLAC]\03 - The Bulgarians.wav
Peak level 98.7 %
Extraction speed 3.1 X
Track quality 100.0 %
Test CRC C42B14D3
Copy CRC C42B14D3
Accurately ripped (confidence 3) [84C50956] (AR v2)
Copy OK
Track 4
Filename C:\New rips\The Apples - Attention - 2005 (Audio Montage) [FLAC]\04 - Elias.wav
Peak level 98.7 %
Extraction speed 3.2 X
Track quality 100.0 %
Test CRC A52A1638
Copy CRC A52A1638
Accurately ripped (confidence 3) [E62E2DF6] (AR v2)
Copy OK
Track 5
Filename C:\New rips\The Apples - Attention - 2005 (Audio Montage) [FLAC]\05 - Thirst.wav
Peak level 98.7 %
Extraction speed 3.4 X
Track quality 100.0 %
Test CRC 6B7A2402
Copy CRC 6B7A2402
Accurately ripped (confidence 3) [FE620152] (AR v2)
Copy OK
Track 6
Filename C:\New rips\The Apples - Attention - 2005 (Audio Montage) [FLAC]\06 - Shakin'.wav
Peak level 98.7 %
Extraction speed 3.8 X
Track quality 100.0 %
Test CRC 352C999E
Copy CRC 352C999E
Accurately ripped (confidence 3) [160959B3] (AR v2)
Copy OK
Track 7
Filename C:\New rips\The Apples - Attention - 2005 (Audio Montage) [FLAC]\07 - Kidney Stone.wav
Peak level 99.9 %
Extraction speed 4.0 X
Track quality 100.0 %
Test CRC 09F213F7
Copy CRC 09F213F7
Accurately ripped (confidence 3) [73CB11D9] (AR v2)
Copy OK
Track 8
Filename C:\New rips\The Apples - Attention - 2005 (Audio Montage) [FLAC]\08 - Natri Ba Makom.wav
Peak level 98.7 %
Extraction speed 3.6 X
Track quality 99.9 %
Test CRC 2BDEBD27
Copy CRC 2BDEBD27
Accurately ripped (confidence 3) [6E9550AE] (AR v2)
Copy OK
Track 9
Filename C:\New rips\The Apples - Attention - 2005 (Audio Montage) [FLAC]\09 - Woo!!!.wav
Peak level 98.7 %
Extraction speed 4.5 X
Track quality 100.0 %
Test CRC 4D2C9746
Copy CRC 4D2C9746
Accurately ripped (confidence 3) [1B35B6B2] (AR v2)
Copy OK
All tracks accurately ripped
No errors occurred
End of status report
==== Log checksum D21030F3875BC6B6228BAB33FFD6F6ECA096B30006572EA098C1D6C9EDCA7636 ====
 
Содержание индексной карты (.CUE):
REM GENRE Fusion
REM DATE 2005
REM DISCID 670A3909
REM COMMENT "ExactAudioCopy v1.3"
PERFORMER "The Apples"
TITLE "Attention!"
REM COMPOSER ""
FILE "01 - Chemical Sniffer.wav" WAVE
TRACK 01 AUDIO
TITLE "Chemical Sniffer"
PERFORMER "The Apples"
REM COMPOSER ""
FLAGS DCP
INDEX 01 00:00:00
FILE "02 - Attention!.wav" WAVE
TRACK 02 AUDIO
TITLE "Attention!"
PERFORMER "The Apples"
REM COMPOSER ""
FLAGS DCP
INDEX 01 00:00:00
FILE "03 - The Bulgarians.wav" WAVE
TRACK 03 AUDIO
TITLE "The Bulgarians"
PERFORMER "The Apples"
REM COMPOSER ""
FLAGS DCP
INDEX 01 00:00:00
FILE "04 - Elias.wav" WAVE
TRACK 04 AUDIO
TITLE "Elias"
PERFORMER "The Apples"
REM COMPOSER ""
FLAGS DCP
INDEX 01 00:00:00
FILE "05 - Thirst.wav" WAVE
TRACK 05 AUDIO
TITLE "Thirst"
PERFORMER "The Apples"
REM COMPOSER ""
FLAGS DCP
INDEX 01 00:00:00
FILE "06 - Shakin'.wav" WAVE
TRACK 06 AUDIO
TITLE "Shakin'"
PERFORMER "The Apples"
REM COMPOSER ""
FLAGS DCP
INDEX 01 00:00:00
FILE "07 - Kidney Stone.wav" WAVE
TRACK 07 AUDIO
TITLE "Kidney Stone"
PERFORMER "The Apples"
REM COMPOSER ""
FLAGS DCP
INDEX 01 00:00:00
FILE "08 - Natri Ba Makom.wav" WAVE
TRACK 08 AUDIO
TITLE "Natri Ba Makom"
PERFORMER "The Apples"
REM COMPOSER ""
FLAGS DCP
INDEX 01 00:00:00
FILE "09 - Woo!!!.wav" WAVE
TRACK 09 AUDIO
TITLE "Woo!!!"
PERFORMER "The Apples"
REM COMPOSER ""
FLAGS DCP
INDEX 01 00:00:00
 
Лог проверки качества
 
Замер динамического диапазона
foobar2000 1.3.10 / Замер динамического диапазона (DR) 1.1.1
Дата отчёта: 2018-01-01 14:59:05
--------------------------------------------------------------------------------
Анализ: The Apples / Attention!
--------------------------------------------------------------------------------
DR Пики RMS Продолжительность трека
--------------------------------------------------------------------------------
DR8 -0.11 дБ -9.12 дБ 4:55 01-Chemical Sniffer
DR8 -0.11 дБ -9.13 дБ 3:34 02-Attention!
DR9 -0.11 дБ -10.05 дБ 5:09 03-The Bulgarians
DR8 -0.11 дБ -9.98 дБ 4:24 04-Elias
DR8 -0.11 дБ -9.55 дБ 4:12 05-Thirst
DR7 -0.11 дБ -8.10 дБ 5:09 06-Shakin'
DR7 -0.01 дБ -8.85 дБ 5:36 07-Kidney Stone
DR9 -0.11 дБ -10.23 дБ 3:59 08-Natri Ba Makom
DR8 -0.11 дБ -8.92 дБ 6:39 09-Woo!!!
--------------------------------------------------------------------------------
Количество треков: 9
Реальные значения DR: DR8
Частота: 44100 Гц
Каналов: 2
Разрядность: 16
Битрейт: 1060 кбит/с
Кодек: FLAC
================================================================================

 
Диск
 
Матрица
 
Back
 
Состав
Double Bass – Shai Ran
Drums – Yoni Halevy
Engineer, Recorded By, Producer – Mixmonster
Saxophone [Baritone] – Yuval Tabachnik
Saxophone [Soprano, Tenor] – Oleg Nayman
Trombone – Yaron Ouzana
Trumpet – Arthur Krasnobaev
Turntables – DJ Todres, Schoolmaster
Saxophone [Tenor] (3,4) – Yaron Semiat
Drums [Daf] (4) – Elias Habib
 
Buzzin About - 2008 (53:00)
Страна - производитель диска: Israel
Издатель (лейбл): Audio MontageAudio Montage
Номер по каталогу: AMCD005
Трэклист:
1 Stack It Up!
2 Run This Town
3 Debil's Dream
4 The Bell Step
5 Run Shai Ran
6 Lou-E-zee-YANAA
7 Kol Hayom BaHalal
8 Number Two
9 Up-Skirt
10 Yablaki
11 Buzzin' About
Bonus Track:
12 Killing
Recorded at The Hostel with The Bleeding Soul Mobile Studio, 10th -15th Jan 2008
 
Лог создания рипа
Exact Audio Copy V1.3 from 2. September 2016
EAC extraction logfile from 5. December 2017, 7:35
The Apples / Buzzin About
Used drive : HL-DT-STDVDRAM GH24NSB0 Adapter: 1 ID: 0
Read mode : Secure
Utilize accurate stream : Yes
Defeat audio cache : Yes
Make use of C2 pointers : No
Read offset correction : 6
Overread into Lead-In and Lead-Out : No
Fill up missing offset samples with silence : Yes
Delete leading and trailing silent blocks : No
Null samples used in CRC calculations : Yes
Used interface : Native Win32 interface for Win NT & 2000
Gap handling : Appended to previous track
Used output format : User Defined Encoder
Selected bitrate : 1024 kBit/s
Quality : High
Add ID3 tag : No
Command line compressor : C:\Program Files (x86)\Exact Audio Copy\FLAC\FLAC.EXE
Additional command line options : -V -8 -T "Genre=%genre%" -T "Artist=%artist%" -T "Title=%title%" -T "Album=%albumtitle%" -T "Date=%year%" -T "Tracknumber=%tracknr%" -T "Comment=%comment%" %source%
TOC of the extracted CD
Track | Start | Length | Start sector | End sector
---------------------------------------------------------
1 | 0:00.00 | 3:32.45 | 0 | 15944
2 | 3:32.45 | 5:50.40 | 15945 | 42234
3 | 9:23.10 | 4:53.16 | 42235 | 64225
4 | 14:16.26 | 4:10.02 | 64226 | 82977
5 | 18:26.28 | 1:29.38 | 82978 | 89690
6 | 19:55.66 | 5:54.69 | 89691 | 116309
7 | 25:50.60 | 3:46.73 | 116310 | 133332
8 | 29:37.58 | 3:54.73 | 133333 | 150955
9 | 33:32.56 | 4:54.08 | 150956 | 173013
10 | 38:26.64 | 5:38.40 | 173014 | 198403
11 | 44:05.29 | 4:32.18 | 198404 | 218821
12 | 48:37.47 | 4:22.44 | 218822 | 238515
Track 1
Filename D:\Music\MG rips\The Apples - Buzzin About - 2008 (Audio Montage) [FLAC]\01 - Stack It Up!.wav
Pre-gap length 0:00:02.00
Peak level 92.3 %
Extraction speed 1.0 X
Track quality 100.0 %
Test CRC A22F7008
Copy CRC A22F7008
Accurately ripped (confidence 2) [E3A637A5] (AR v1)
Copy OK
Track 2
Filename D:\Music\MG rips\The Apples - Buzzin About - 2008 (Audio Montage) [FLAC]\02 - Run This Town.wav
Peak level 92.3 %
Extraction speed 1.2 X
Track quality 100.0 %
Test CRC 79BB1DC4
Copy CRC 79BB1DC4
Accurately ripped (confidence 2) [E688EBA9] (AR v1)
Copy OK
Track 3
Filename D:\Music\MG rips\The Apples - Buzzin About - 2008 (Audio Montage) [FLAC]\03 - Debil's Dream.wav
Peak level 92.3 %
Extraction speed 1.3 X
Track quality 100.0 %
Test CRC 88BA5649
Copy CRC 88BA5649
Accurately ripped (confidence 2) [53B5F376] (AR v1)
Copy OK
Track 4
Filename D:\Music\MG rips\The Apples - Buzzin About - 2008 (Audio Montage) [FLAC]\04 - The Bell Step.wav
Peak level 92.3 %
Extraction speed 1.4 X
Track quality 100.0 %
Test CRC 24233545
Copy CRC 24233545
Accurately ripped (confidence 2) [6BD757F2] (AR v1)
Copy OK
Track 5
Filename D:\Music\MG rips\The Apples - Buzzin About - 2008 (Audio Montage) [FLAC]\05 - Run Shai Run.wav
Peak level 44.7 %
Extraction speed 1.2 X
Track quality 100.0 %
Test CRC 3366B22E
Copy CRC 3366B22E
Accurately ripped (confidence 2) [22C3A592] (AR v1)
Copy OK
Track 6
Filename D:\Music\MG rips\The Apples - Buzzin About - 2008 (Audio Montage) [FLAC]\06 - Lou-E-zee-YANAA.wav
Peak level 92.3 %
Extraction speed 1.5 X
Track quality 99.9 %
Test CRC 50F7965E
Copy CRC 50F7965E
Accurately ripped (confidence 2) [55751B2D] (AR v1)
Copy OK
Track 7
Filename D:\Music\MG rips\The Apples - Buzzin About - 2008 (Audio Montage) [FLAC]\07 - Kol HaYom BaHalal.wav
Peak level 92.3 %
Extraction speed 1.6 X
Track quality 100.0 %
Test CRC 7752E9E8
Copy CRC 7752E9E8
Accurately ripped (confidence 2) [8357BA73] (AR v1)
Copy OK
Track 8
Filename D:\Music\MG rips\The Apples - Buzzin About - 2008 (Audio Montage) [FLAC]\08 - Number Two.wav
Peak level 92.3 %
Extraction speed 1.7 X
Track quality 100.0 %
Test CRC E0303330
Copy CRC E0303330
Accurately ripped (confidence 2) [CDD83800] (AR v1)
Copy OK
Track 9
Filename D:\Music\MG rips\The Apples - Buzzin About - 2008 (Audio Montage) [FLAC]\09 - Up-Skirt.wav
Peak level 92.3 %
Extraction speed 1.6 X
Track quality 99.9 %
Test CRC 7D04502D
Copy CRC 7D04502D
Accurately ripped (confidence 2) [395C40F5] (AR v1)
Copy OK
Track 10
Filename D:\Music\MG rips\The Apples - Buzzin About - 2008 (Audio Montage) [FLAC]\10 - Yabalaki.wav
Peak level 92.3 %
Extraction speed 2.0 X
Track quality 100.0 %
Test CRC 205D8CB3
Copy CRC 205D8CB3
Accurately ripped (confidence 2) [F2BCC702] (AR v1)
Copy OK
Track 11
Filename D:\Music\MG rips\The Apples - Buzzin About - 2008 (Audio Montage) [FLAC]\11 - Buzzin' About.wav
Peak level 92.3 %
Extraction speed 1.8 X
Track quality 99.9 %
Test CRC D0752064
Copy CRC D0752064
Accurately ripped (confidence 2) [C5B357B3] (AR v1)
Copy OK
Track 12
Filename D:\Music\MG rips\The Apples - Buzzin About - 2008 (Audio Montage) [FLAC]\12 - Killing (bonus track).wav
Peak level 92.3 %
Extraction speed 1.8 X
Track quality 99.9 %
Test CRC 47F48A57
Copy CRC 47F48A57
Accurately ripped (confidence 2) [B22C9DE0] (AR v1)
Copy OK
All tracks accurately ripped
No errors occurred
End of status report
==== Log checksum 4D7B9D541EE27F9054FE72DC28F47E9DE1A503FB3DAC9390EF9D2EE690F59650 ====
 
Содержание индексной карты (.CUE):
REM GENRE Freestyle
REM DATE 2008
REM DISCID AB0C6C0C
REM COMMENT "ExactAudioCopy v1.3"
PERFORMER "The Apples"
TITLE "Buzzin About"
REM COMPOSER ""
FILE "01 - Stack It Up!.wav" WAVE
TRACK 01 AUDIO
TITLE "Stack It Up!"
PERFORMER "The Apples"
REM COMPOSER ""
INDEX 01 00:00:00
FILE "02 - Run This Town.wav" WAVE
TRACK 02 AUDIO
TITLE "Run This Town"
PERFORMER "The Apples"
REM COMPOSER ""
INDEX 01 00:00:00
FILE "03 - Debil's Dream.wav" WAVE
TRACK 03 AUDIO
TITLE "Debil's Dream"
PERFORMER "The Apples"
REM COMPOSER ""
INDEX 01 00:00:00
FILE "04 - The Bell Step.wav" WAVE
TRACK 04 AUDIO
TITLE "The Bell Step"
PERFORMER "The Apples"
REM COMPOSER ""
INDEX 01 00:00:00
FILE "05 - Run Shai Run.wav" WAVE
TRACK 05 AUDIO
TITLE "Run Shai Run"
PERFORMER "The Apples"
REM COMPOSER ""
INDEX 01 00:00:00
FILE "06 - Lou-E-zee-YANAA.wav" WAVE
TRACK 06 AUDIO
TITLE "Lou-E-zee-YANAA"
PERFORMER "The Apples"
REM COMPOSER ""
INDEX 01 00:00:00
FILE "07 - Kol HaYom BaHalal.wav" WAVE
TRACK 07 AUDIO
TITLE "Kol HaYom BaHalal"
PERFORMER "The Apples"
REM COMPOSER ""
INDEX 01 00:00:00
FILE "08 - Number Two.wav" WAVE
TRACK 08 AUDIO
TITLE "Number Two"
PERFORMER "The Apples"
REM COMPOSER ""
INDEX 01 00:00:00
FILE "09 - Up-Skirt.wav" WAVE
TRACK 09 AUDIO
TITLE "Up-Skirt"
PERFORMER "The Apples"
REM COMPOSER ""
INDEX 01 00:00:00
FILE "10 - Yabalaki.wav" WAVE
TRACK 10 AUDIO
TITLE "Yabalaki"
PERFORMER "The Apples"
REM COMPOSER ""
INDEX 01 00:00:00
FILE "11 - Buzzin' About.wav" WAVE
TRACK 11 AUDIO
TITLE "Buzzin' About"
PERFORMER "The Apples"
REM COMPOSER ""
INDEX 01 00:00:00
FILE "12 - Killing (bonus track).wav" WAVE
TRACK 12 AUDIO
TITLE "Killing (bonus track)"
PERFORMER "The Apples"
REM COMPOSER ""
INDEX 01 00:00:00
 
Лог проверки качества
 
Лог CUETools
[CUETools log; Date: 12/21/2017 5:57:01 AM; Version: 2.1.5]
[CTDB TOCID: Eiwsoyp_Zp1oMMooYLRd_NU_CS4-] found.
Track | CTDB Status
1 | (5/5) Accurately ripped
2 | (5/5) Accurately ripped
3 | (5/5) Accurately ripped
4 | (5/5) Accurately ripped
5 | (5/5) Accurately ripped
6 | (4/5) Accurately ripped
7 | (5/5) Accurately ripped
8 | (5/5) Accurately ripped
9 | (5/5) Accurately ripped
10 | (5/5) Accurately ripped
11 | (5/5) Accurately ripped
12 | (5/5) Accurately ripped
[AccurateRip ID: 001742ce-00d964da-ab0c6c0c] found.
Track [ CRC | V2 ] Status
01 [e3a637a5|558abb78] (02+00/10) Accurately ripped
02 [e688eba9|b53dfd76] (02+00/10) Accurately ripped
03 [53b5f376|caee2a01] (02+00/10) Accurately ripped
04 [6bd757f2|efa4ff57] (02+00/10) Accurately ripped
05 [22c3a592|c5c63dc2] (02+00/10) Accurately ripped
06 [55751b2d|31ee2ba8] (02+00/10) Accurately ripped
07 [8357ba73|c4313cfe] (02+00/10) Accurately ripped
08 [cdd83800|7cc7f8ae] (02+00/10) Accurately ripped
09 [395c40f5|c298136a] (02+00/10) Accurately ripped
10 [f2bcc702|ce16f8a6] (02+00/10) Accurately ripped
11 [c5b357b3|9d5b7b07] (02+00/10) Accurately ripped
12 [b22c9de0|cff869b2] (02+00/10) Accurately ripped
Offsetted by 712:
01 [ae22d777] (02/10) Accurately ripped
02 [c8cf2b00] (02/10) Accurately ripped
03 [92c48e76] (02/10) Accurately ripped
04 [cfdce868] (02/10) Accurately ripped
05 [6dfd180c] (02/10) Accurately ripped
06 [15c2d1d3] (02/10) Accurately ripped
07 [d7b900d4] (02/10) Accurately ripped
08 [5ca19210] (02/10) Accurately ripped
09 [26e8bd14] (02/10) Accurately ripped
10 [03d38445] (02/10) Accurately ripped
11 [dbcc5708] (02/10) Accurately ripped
12 [ecb1ee35] (02/10) Accurately ripped
Offsetted by 670:
01 [339e7f51] (00/10) No match (V2 was not tested)
02 [afc83033] (00/10) No match (V2 was not tested)
03 [ffd1fb43] (00/10) No match (V2 was not tested)
04 [f5f13ab2] (00/10) No match (V2 was not tested)
05 [cc1fc0b6] (00/10) No match (V2 was not tested)
06 [b734b5ba] (00/10) No match (V2 was not tested)
07 [81e5571f] (00/10) No match (V2 was not tested)
08 [20e60fe0] (00/10) No match (V2 was not tested)
09 [02f819ae] (00/10) No match (V2 was not tested)
10 [a21bfdce] (00/10) No match (V2 was not tested)
11 [6c5195da] (00/10) No match (V2 was not tested)
12 [f9957988] (00/10) No match (V2 was not tested)
Track Peak [ CRC32 ] [W/O NULL] [ LOG ]
-- 92.3 [66E44493] [7A467FC7]
01 92.3 [A22F7008] [6A772F5B] CRC32
02 92.3 [79BB1DC4] [8EFFAC6B] CRC32
03 92.3 [88BA5649] [3275673C] CRC32
04 92.3 [24233545] [F397F2CB] CRC32
05 44.7 [3366B22E] [8FAA283E] CRC32
06 92.3 [50F7965E] [AE22F34F] CRC32
07 92.2 [7752E9E8] [942D4F0E] CRC32
08 92.3 [E0303330] [A3AF9CB7] CRC32
09 92.3 [7D04502D] [597B26C2] CRC32
10 92.3 [205D8CB3] [95E44C56] CRC32
11 92.3 [D0752064] [86C13B96] CRC32
12 92.3 [47F48A57] [C924550B] CRC32
 
Замер динамического диапазона
foobar2000 1.3.10 / Замер динамического диапазона (DR) 1.1.1
Дата отчёта: 2017-12-29 05:57:23
--------------------------------------------------------------------------------
Анализ: The Apples / Buzzin About
--------------------------------------------------------------------------------
DR Пики RMS Продолжительность трека
--------------------------------------------------------------------------------
DR9 -0.70 дБ -11.34 дБ 3:33 01-Stack It Up!
DR9 -0.70 дБ -12.39 дБ 5:51 02-Run This Town
DR10 -0.70 дБ -12.34 дБ 4:53 03-Debil's Dream
DR10 -0.70 дБ -12.45 дБ 4:10 04-The Bell Step
DR10 -6.99 дБ -20.34 дБ 1:30 05-Run Shai Run
DR10 -0.69 дБ -12.90 дБ 5:55 06-Lou-E-zee-YANAA
DR10 -0.70 дБ -13.64 дБ 3:47 07-Kol HaYom BaHalal
DR8 -0.70 дБ -10.68 дБ 3:55 08-Number Two
DR9 -0.70 дБ -11.16 дБ 4:54 09-Up-Skirt
DR8 -0.70 дБ -11.57 дБ 5:39 10-Yabalaki
DR10 -0.70 дБ -12.72 дБ 4:32 11-Buzzin' About
DR9 -0.70 дБ -11.24 дБ 4:23 12-Killing (bonus track)
--------------------------------------------------------------------------------
Количество треков: 12
Реальные значения DR: DR9
Частота: 44100 Гц
Каналов: 2
Разрядность: 16
Битрейт: 833 кбит/с
Кодек: FLAC
================================================================================

 
Диск
 
Матрица
 
Back
 
Состав
Uri Mixmonster" Wertheim (Sound & Effects)
Erez Todres (Turntables)
Ofer Schoolmaster" Таl (Turntables)
Yuval Tabachnik (Baritone Saxophone)
Oleg Naiman (Tenor & Soprano Saxophones)
Arthur Krasnobaev (Trumpet)
Yaron Ouzana (Trombone)
Shai Ran (Double Bass)
Yonadav Halevy (Drums)
 
Kings - 2010 (38:54)
Страна - производитель диска: Israel
Издатель (лейбл): Audio Montage
Номер по каталогу: AMCD011
Трэклист:
Featuring Fred Wesley:
1: Howlin' with Fred
2: In the Air
3: All Right All Right
4: Kings
Featuring Shlomo Bar:
5: Batash (Alwoojdi)
6: Ani, Ata veHoo
7: Walking to the Palace
8: Banana Jam
 
Лог создания рипа
Exact Audio Copy V0.99 prebeta 5 from 4. May 2009
EAC extraction logfile from 9. February 2011, 19:04
The Apples / Kings
Used drive : HL-DT-STDVD-RAM GH22NP20 Adapter: 0 ID: 0
Read mode : Secure
Utilize accurate stream : Yes
Defeat audio cache : Yes
Make use of C2 pointers : No
Read offset correction : 102
Overread into Lead-In and Lead-Out : No
Fill up missing offset samples with silence : Yes
Delete leading and trailing silent blocks : No
Null samples used in CRC calculations : Yes
Used interface : Native Win32 interface for Win NT & 2000
Gap handling : Appended to previous track
Used output format : User Defined Encoder
Selected bitrate : 320 kBit/s
Quality : High
Add ID3 tag : No
Command line compressor : D:\tools\analyzeape\flac.exe
Additional command line options : -8 -V -T "ARTIST=%a" -T "TITLE=%t" -T "ALBUM=%g" -T "DATE=%y" -T "TRACKNUMBER=%n" -T "GENRE=%m" -T "COMMENT=EAC FLAC -8" %s
TOC of the extracted CD
Track | Start | Length | Start sector | End sector
---------------------------------------------------------
1 | 0:00.00 | 4:39.17 | 0 | 20941
2 | 4:39.17 | 4:09.47 | 20942 | 39663
3 | 8:48.64 | 4:05.08 | 39664 | 58046
4 | 12:53.72 | 3:50.59 | 58047 | 75355
5 | 16:44.56 | 3:44.00 | 75356 | 92155
6 | 20:28.56 | 5:03.45 | 92156 | 114925
7 | 25:32.26 | 6:20.30 | 114926 | 143455
8 | 31:52.56 | 7:02.10 | 143456 | 175115
Track 1
Filename D:\music\Musicgate's rips\The Apples - Kings - 2010\01 - Howlin' With Fred.wav
Pre-gap length 0:00:02.00
Peak level 99.9 %
Track quality 100.0 %
Test CRC F13E47F6
Copy CRC F13E47F6
Track not present in AccurateRip database
Copy OK
Track 2
Filename D:\music\Musicgate's rips\The Apples - Kings - 2010\02 - In The Air.wav
Peak level 99.9 %
Track quality 100.0 %
Test CRC 43C2F2C7
Copy CRC 43C2F2C7
Track not present in AccurateRip database
Copy OK
Track 3
Filename D:\music\Musicgate's rips\The Apples - Kings - 2010\03 - ALl Right All Right.wav
Peak level 98.9 %
Track quality 100.0 %
Test CRC 82B7D64A
Copy CRC 82B7D64A
Track not present in AccurateRip database
Copy OK
Track 4
Filename D:\music\Musicgate's rips\The Apples - Kings - 2010\04 - Kings.wav
Peak level 99.8 %
Track quality 99.9 %
Test CRC 32F21B4A
Copy CRC 32F21B4A
Track not present in AccurateRip database
Copy OK
Track 5
Filename D:\music\Musicgate's rips\The Apples - Kings - 2010\05 - Batash (Alwoojdi).wav
Peak level 97.7 %
Track quality 100.0 %
Test CRC D62964E6
Copy CRC D62964E6
Track not present in AccurateRip database
Copy OK
Track 6
Filename D:\music\Musicgate's rips\The Apples - Kings - 2010\06 - Ani, Ata veHoo.wav
Peak level 97.6 %
Track quality 100.0 %
Test CRC 1CFC319F
Copy CRC 1CFC319F
Track not present in AccurateRip database
Copy OK
Track 7
Filename D:\music\Musicgate's rips\The Apples - Kings - 2010\07 - Walking To The Palace.wav
Peak level 99.9 %
Track quality 100.0 %
Test CRC A6A1F027
Copy CRC A6A1F027
Track not present in AccurateRip database
Copy OK
Track 8
Filename D:\music\Musicgate's rips\The Apples - Kings - 2010\08 - Banana Jam.wav
Peak level 97.6 %
Track quality 100.0 %
Test CRC BF2E99B7
Copy CRC BF2E99B7
Track not present in AccurateRip database
Copy OK
None of the tracks are present in the AccurateRip database
No errors occurred
End of status report
 
Содержание индексной карты (.CUE):
REM DATE 2010
REM DISCID 51091E08
REM COMMENT "ExactAudioCopy v0.99pb5"
PERFORMER "The Apples"
TITLE "Kings"
FILE "01 - Howlin' With Fred.wav" WAVE
TRACK 01 AUDIO
TITLE "Howlin' With Fred"
PERFORMER "The Apples"
FLAGS DCP
INDEX 01 00:00:00
FILE "02 - In The Air.wav" WAVE
TRACK 02 AUDIO
TITLE "In The Air"
PERFORMER "The Apples"
FLAGS DCP
INDEX 01 00:00:00
FILE "03 - ALl Right All Right.wav" WAVE
TRACK 03 AUDIO
TITLE "ALl Right All Right"
PERFORMER "The Apples"
FLAGS DCP
INDEX 01 00:00:00
FILE "04 - Kings.wav" WAVE
TRACK 04 AUDIO
TITLE "Kings"
PERFORMER "The Apples"
FLAGS DCP
INDEX 01 00:00:00
FILE "05 - Batash (Alwoojdi).wav" WAVE
TRACK 05 AUDIO
TITLE "Batash (Alwoojdi)"
PERFORMER "The Apples"
FLAGS DCP
INDEX 01 00:00:00
FILE "06 - Ani, Ata veHoo.wav" WAVE
TRACK 06 AUDIO
TITLE "Ani, Ata veHoo"
PERFORMER "The Apples"
FLAGS DCP
INDEX 01 00:00:00
FILE "07 - Walking To The Palace.wav" WAVE
TRACK 07 AUDIO
TITLE "Walking To The Palace"
PERFORMER "The Apples"
FLAGS DCP
INDEX 01 00:00:00
FILE "08 - Banana Jam.wav" WAVE
TRACK 08 AUDIO
TITLE "Banana Jam"
PERFORMER "The Apples"
FLAGS DCP
INDEX 01 00:00:00
 
Лог проверки качества
 
Замер динамического диапазона
foobar2000 1.3.10 / Замер динамического диапазона (DR) 1.1.1
Дата отчёта: 2018-01-01 15:14:05
--------------------------------------------------------------------------------
Анализ: The Apples / Kings
--------------------------------------------------------------------------------
DR Пики RMS Продолжительность трека
--------------------------------------------------------------------------------
DR7 0.00 дБ -8.12 дБ 4:39 01-Howlin' With Fred
DR7 0.00 дБ -7.99 дБ 4:10 02-In The Air
DR7 -0.09 дБ -8.63 дБ 4:05 03-ALl Right All Right
DR8 -0.01 дБ -8.71 дБ 3:51 04-Kings
DR6 -0.19 дБ -7.70 дБ 3:44 05-Batash (Alwoojdi)
DR6 -0.21 дБ -8.00 дБ 5:04 06-Ani, Ata veHoo
DR8 0.00 дБ -10.02 дБ 6:20 07-Walking To The Palace
DR8 -0.21 дБ -9.41 дБ 7:02 08-Banana Jam
--------------------------------------------------------------------------------
Количество треков: 8
Реальные значения DR: DR7
Частота: 44100 Гц
Каналов: 2
Разрядность: 16
Битрейт: 903 кбит/с
Кодек: FLAC
================================================================================

 
Диск
 
Матрица
 
Back
 
Состав
Written, Arranged and Performed by The Apples with:
Fred Wesley - Trombone, tracks 1-4
Shlomo Bar - Vocals and Percussion, tracks 5-8
llan Ben-Ami - Oud, tracks 5-7
Tracks 5-7 Written by Shlomo Bar (© 1990+2008 Shlomo Bar Music)
Produced by Mixmonster and Yonadav Halevy
Recorded and Mixed by Mixmonster at Gal-Kol studios and Audio Montage Herzl studio
The Apples ane:
Arthur Krasnobaev - Trumpet
Yaron Ouzana - Trombone and Shells
Oleg Naiman - Tenor, Soprano Saxophones
Yakir Sasson - Baritone Saxophone
Erez Todres - Turntables
Ofer "Schoolmaster" Tal - Turntables
Alon Carmelly - Double Bass
Yonadav Halevy - Drums
Uri "Mixmonster" Wertheim - Sound Console
 
Fly On It - 2012 (38:26)
Страна - производитель диска: Israel
Издатель (лейбл): Audio Montage
Номер по каталогу: AMCD016
Трэклист:
1. Preserve
2. Fly On It
3. Sixth Stream
4. Thang
5. Rhinocerize
6. Looking For Trouble
7. Powder
8. Do The Car Horn
 
Лог создания рипа
Exact Audio Copy V1.0 beta 2 from 29. April 2011
EAC extraction logfile from 16. April 2013, 18:53
The Apples / Fly On It
Used drive : HL-DT-STDVD-RAM GH22NP20 Adapter: 0 ID: 0
Read mode : Secure
Utilize accurate stream : Yes
Defeat audio cache : Yes
Make use of C2 pointers : No
Read offset correction : 102
Overread into Lead-In and Lead-Out : No
Fill up missing offset samples with silence : Yes
Delete leading and trailing silent blocks : No
Null samples used in CRC calculations : Yes
Used interface : Native Win32 interface for Win NT & 2000
Gap handling : Appended to previous track
Used output format : User Defined Encoder
Selected bitrate : 1024 kBit/s
Quality : High
Add ID3 tag : No
Command line compressor : C:\Program Files\Exact Audio Copy\Flac\flac.exe
Additional command line options : -8 -V -T "ARTIST=%artist%" -T "TITLE=%title%" -T "ALBUM=%albumtitle%" -T "DATE=%year%" -T "TRACKNUMBER=%tracknr%" -T "GENRE=%genre%" -T "PERFORMER=%albuminterpret%" -T "COMMENT=EAC V1.0 beta 2, Secure Mode, Test & Copy, Acc
TOC of the extracted CD
Track | Start | Length | Start sector | End sector
---------------------------------------------------------
1 | 0:00.00 | 5:33.37 | 0 | 25011
2 | 5:33.37 | 2:48.28 | 25012 | 37639
3 | 8:21.65 | 6:33.42 | 37640 | 67156
4 | 14:55.32 | 4:58.66 | 67157 | 89572
5 | 19:54.23 | 5:59.35 | 89573 | 116532
6 | 25:53.58 | 5:01.12 | 116533 | 139119
7 | 30:54.70 | 3:50.26 | 139120 | 156395
8 | 34:45.21 | 3:41.47 | 156396 | 173017
Track 1
Filename D:\music\Musicgate's rips\The Apples - Fly On It - 2012 (Audio Montage)\01 - Preserve.wav
Pre-gap length 0:00:02.00
Peak level 100.0 %
Extraction speed 1.6 X
Track quality 100.0 %
Test CRC E319A9C4
Copy CRC E319A9C4
Track not present in AccurateRip database
Copy OK
Track 2
Filename D:\music\Musicgate's rips\The Apples - Fly On It - 2012 (Audio Montage)\02 - Fly On It.wav
Peak level 100.0 %
Extraction speed 1.6 X
Track quality 100.0 %
Test CRC 49EC5A3D
Copy CRC 49EC5A3D
Track not present in AccurateRip database
Copy OK
Track 3
Filename D:\music\Musicgate's rips\The Apples - Fly On It - 2012 (Audio Montage)\03 - Sixth Stream.wav
Peak level 100.0 %
Extraction speed 2.1 X
Track quality 100.0 %
Test CRC B040375A
Copy CRC B040375A
Track not present in AccurateRip database
Copy OK
Track 4
Filename D:\music\Musicgate's rips\The Apples - Fly On It - 2012 (Audio Montage)\04 - Thang.wav
Peak level 100.0 %
Extraction speed 2.3 X
Track quality 100.0 %
Test CRC 4C6AB188
Copy CRC 4C6AB188
Track not present in AccurateRip database
Copy OK
Track 5
Filename D:\music\Musicgate's rips\The Apples - Fly On It - 2012 (Audio Montage)\05 - Rhinocerize.wav
Peak level 100.0 %
Extraction speed 2.5 X
Track quality 100.0 %
Test CRC 4DA09865
Copy CRC 4DA09865
Track not present in AccurateRip database
Copy OK
Track 6
Filename D:\music\Musicgate's rips\The Apples - Fly On It - 2012 (Audio Montage)\06 - Looking For Trouble.wav
Peak level 100.0 %
Extraction speed 2.6 X
Track quality 100.0 %
Test CRC 7EBF54A7
Copy CRC 7EBF54A7
Track not present in AccurateRip database
Copy OK
Track 7
Filename D:\music\Musicgate's rips\The Apples - Fly On It - 2012 (Audio Montage)\07 - Powder.wav
Peak level 100.0 %
Extraction speed 2.6 X
Track quality 100.0 %
Test CRC FFEF9F95
Copy CRC FFEF9F95
Track not present in AccurateRip database
Copy OK
Track 8
Filename D:\music\Musicgate's rips\The Apples - Fly On It - 2012 (Audio Montage)\08 - Do The Car Horn.wav
Peak level 100.0 %
Extraction speed 2.7 X
Track quality 100.0 %
Test CRC 5BA95A93
Copy CRC 5BA95A93
Track not present in AccurateRip database
Copy OK
None of the tracks are present in the AccurateRip database
No errors occurred
End of status report
==== Log checksum CF0B694AEB9B6601029D49875153BA1381581B482D7FBD4EAB61F904227C681C ====
 
Содержание индексной карты (.CUE):
REM GENRE "hip-hop and soul-jazz"
REM DATE 2012
REM DISCID 73090208
REM COMMENT "ExactAudioCopy v1.0b2"
PERFORMER "The Apples"
TITLE "Fly On It"
FILE "01 - Preserve.wav" WAVE
TRACK 01 AUDIO
TITLE "Preserve"
PERFORMER "The Apples"
FLAGS DCP
INDEX 01 00:00:00
FILE "02 - Fly On It.wav" WAVE
TRACK 02 AUDIO
TITLE "Fly On It"
PERFORMER "The Apples"
FLAGS DCP
INDEX 01 00:00:00
FILE "03 - Sixth Stream.wav" WAVE
TRACK 03 AUDIO
TITLE "Sixth Stream"
PERFORMER "The Apples"
FLAGS DCP
INDEX 01 00:00:00
FILE "04 - Thang.wav" WAVE
TRACK 04 AUDIO
TITLE "Thang"
PERFORMER "The Apples"
FLAGS DCP
INDEX 01 00:00:00
FILE "05 - Rhinocerize.wav" WAVE
TRACK 05 AUDIO
TITLE "Rhinocerize"
PERFORMER "The Apples"
FLAGS DCP
INDEX 01 00:00:00
FILE "06 - Looking For Trouble.wav" WAVE
TRACK 06 AUDIO
TITLE "Looking For Trouble"
PERFORMER "The Apples"
FLAGS DCP
INDEX 01 00:00:00
FILE "07 - Powder.wav" WAVE
TRACK 07 AUDIO
TITLE "Powder"
PERFORMER "The Apples"
FLAGS DCP
INDEX 01 00:00:00
FILE "08 - Do The Car Horn.wav" WAVE
TRACK 08 AUDIO
TITLE "Do The Car Horn"
PERFORMER "The Apples"
FLAGS DCP
INDEX 01 00:00:00
 
Лог проверки качества
 
Замер динамического диапазона
foobar2000 1.3.10 / Замер динамического диапазона (DR) 1.1.1
Дата отчёта: 2018-01-01 15:19:35
--------------------------------------------------------------------------------
Анализ: The Apples / Fly On It
--------------------------------------------------------------------------------
DR Пики RMS Продолжительность трека
--------------------------------------------------------------------------------
DR6 0.00 дБ -7.78 дБ 5:33 01-Preserve
DR7 0.00 дБ -8.04 дБ 2:48 02-Fly On It
DR6 0.00 дБ -8.74 дБ 6:34 03-Sixth Stream
DR6 0.00 дБ -8.07 дБ 4:59 04-Thang
DR7 0.00 дБ -9.16 дБ 5:59 05-Rhinocerize
DR5 0.00 дБ -7.40 дБ 5:01 06-Looking For Trouble
DR6 0.00 дБ -7.92 дБ 3:50 07-Powder
DR6 0.00 дБ -8.80 дБ 3:42 08-Do The Car Horn
--------------------------------------------------------------------------------
Количество треков: 8
Реальные значения DR: DR6
Частота: 44100 Гц
Каналов: 2
Разрядность: 16
Битрейт: 892 кбит/с
Кодек: FLAC
================================================================================

 
Диск
 
Back
 
Matrix
 
Состав
Arthur Krasnobaev - Trumpet
Yaron "Big Fadda" - Ouzana Trombone
Oleg Naiman - Tenor & Soprano Saxophones
Yakir Sasson - Baritone Saxophone, Flute Ofer "Schoolmaster"
Tal Turntables - Erez Todres Turntables
Alon Carmelly - Double Bass
Yonadav Halevy - Drums
Uri "Mixmonster" Wertheim - Sound Console, Effects
Приватный:
Нет (DHT включён)
Размер:
1.64 Гб (1,761,671,368 байт) » файлов: 93
Участники:
0 раздают, 0 качают (0 участников всего)
Внешние участники:
1 раздают, 0 качают (1 участников всего) [ Обновить ]
Есть вопросы - пишите личное сообщение пользователю M0p94ok.
15:10
58
Нет комментариев. Ваш будет первым!