Поиск

(Bop, Free Jazz, Avant-Garde Jazz) Bobby Enriques And Richie Cole - The Wildman Meets Madman - 1981, FLAC (tracks+.cue), lossless

(Bop, Free Jazz, Avant-Garde Jazz) Bobby Enriques And Richie Cole - The Wildman Meets Madman - 1981, FLAC (tracks+.cue), lossless
Треклист:
Bobby Enriques And Richie Cole - The Wildman Meets Madman
Страна: USA (released in Japan)
Жанр: bop, free jazz, avant
Год выпуска: 1981
Формат: FLAC (tracks)
Битрейт аудио: lossless
Трэклист:
1.Groovin' High (Gillespie )
2.Once in a White
3.Yardbird Suite (Parker )
4.Wild Man Blues (Armstrong, Morton )
5.On Green Dolphin Street
6.Blue Hawaii (Rainger, Robin )
7.Serenata
8.Um Um
Доп. информация:
Фирма: GNP, Japan
Диск: K32Y 6089
Источник: коллекция Л.Рендера
Включает: FLACS, LOG, CUE, TAU, Info - 277 mb
Сканы: Все страницы, вкладыши и диск. 300dpi, png.
Рип: Musicgate (Dyani)
Об альбоме:
В англоязычных источниках не нашел полезной информации о диске, Скотт Янов с AMG считает, что это встреча двух ненормальных, но заслуживающая интереса, на буклете явно много информации, но японским я не владею, увы
Мне нравится

Состав:
Bobby Enriques - piano
Richie Cole - sax
Bruce Forman - guitar
Bob Magnusson - bass
Shelly Manne - drums
 
CUE content
REM GENRE Jazz
REM DATE 1981
REM DISCID 740A4908
REM COMMENT "ExactAudioCopy v0.95b4"
PERFORMER "Bobby Enriques And Richie Cole"
TITLE "The Wildman Meets Madman"
FILE "01 - Groovin' High.wav" WAVE
TRACK 01 AUDIO
TITLE "Groovin' High"
PERFORMER "Bobby Enriques And Richie Cole"
INDEX 01 00:00:00
TRACK 02 AUDIO
TITLE "Once In A While"
PERFORMER "Bobby Enriques And Richie Cole"
INDEX 00 06:13:15
FILE "02 - Once In A While.wav" WAVE
INDEX 01 00:00:00
TRACK 03 AUDIO
TITLE "Yardbird Suite"
PERFORMER "Bobby Enriques And Richie Cole"
INDEX 00 04:52:60
FILE "03 - Yardbird Suite.wav" WAVE
INDEX 01 00:00:00
TRACK 04 AUDIO
TITLE "Wildman Blues"
PERFORMER "Bobby Enriques And Richie Cole"
INDEX 00 04:52:58
FILE "04 - Wildman Blues.wav" WAVE
INDEX 01 00:00:00
TRACK 05 AUDIO
TITLE "On Green Dolphin Street"
PERFORMER "Bobby Enriques And Richie Cole"
INDEX 00 06:51:28
FILE "05 - On Green Dolphin Street.wav" WAVE
INDEX 01 00:00:00
TRACK 06 AUDIO
TITLE "Blue Hawaii"
PERFORMER "Bobby Enriques And Richie Cole"
INDEX 00 06:36:10
FILE "06 - Blue Hawaii.wav" WAVE
INDEX 01 00:00:00
TRACK 07 AUDIO
TITLE "Serenata"
PERFORMER "Bobby Enriques And Richie Cole"
INDEX 00 06:32:33
FILE "07 - Serenata.wav" WAVE
INDEX 01 00:00:00
TRACK 08 AUDIO
TITLE "Um Um"
PERFORMER "Bobby Enriques And Richie Cole"
INDEX 00 02:30:62
FILE "08 - Um Um.wav" WAVE
INDEX 01 00:00:00
 
EAC log
EAC extraction logfile from 6. April 2008, 7:26 for CD
Bobby Enriques And Richie Cole / The Wildman Meets Madman
Used drive : PIONEER DVD-RW DVR-112D Adapter: 0 ID: 0
Read mode : Secure with NO C2, accurate stream, disable cache
Read offset correction : 48
Overread into Lead-In and Lead-Out : No
Used output format : C:\Program Files\FLAC\flac.exe (User Defined Encoder)
320 kBit/s
Additional command line options : -8 -V -T "ARTIST=%a" -T "TITLE=%t" -T "ALBUM=%g" -T "DATE=%y" -T "TRACKNUMBER=%n" -T "GENRE=%m" -T "COMMENT=EAC FLAC -8" %s
Other options :
Fill up missing offset samples with silence : Yes
Delete leading and trailing silent blocks : No
Installed external ASPI interface
Track 1
Filename D:\music\rip\Bobby Enriques And Richie Cole - The Wildman Meets Madman (1981) [FLAC]\01 - Groovin' High.wav
Pre-gap length 0:00:02.00
Peak level 89.3 %
Track quality 100.0 %
Test CRC 5CC51B06
Copy CRC 5CC51B06
Copy OK
Track 2
Filename D:\music\rip\Bobby Enriques And Richie Cole - The Wildman Meets Madman (1981) [FLAC]\02 - Once In A While.wav
Pre-gap length 0:00:01.86
Peak level 89.0 %
Track quality 100.0 %
Test CRC 91C486BC
Copy CRC 91C486BC
Copy OK
Track 3
Filename D:\music\rip\Bobby Enriques And Richie Cole - The Wildman Meets Madman (1981) [FLAC]\03 - Yardbird Suite.wav
Pre-gap length 0:00:01.16
Peak level 87.9 %
Track quality 99.9 %
Test CRC D84F2519
Copy CRC D84F2519
Copy OK
Track 4
Filename D:\music\rip\Bobby Enriques And Richie Cole - The Wildman Meets Madman (1981) [FLAC]\04 - Wildman Blues.wav
Pre-gap length 0:00:01.09
Peak level 98.5 %
Track quality 100.0 %
Test CRC F63D05C9
Copy CRC F63D05C9
Copy OK
Track 5
Filename D:\music\rip\Bobby Enriques And Richie Cole - The Wildman Meets Madman (1981) [FLAC]\05 - On Green Dolphin Street.wav
Pre-gap length 0:00:01.20
Peak level 77.3 %
Track quality 100.0 %
Test CRC 060A0C33
Copy CRC 060A0C33
Copy OK
Track 6
Filename D:\music\rip\Bobby Enriques And Richie Cole - The Wildman Meets Madman (1981) [FLAC]\06 - Blue Hawaii.wav
Pre-gap length 0:00:02.02
Peak level 93.8 %
Track quality 100.0 %
Test CRC 42A78924
Copy CRC 42A78924
Copy OK
Track 7
Filename D:\music\rip\Bobby Enriques And Richie Cole - The Wildman Meets Madman (1981) [FLAC]\07 - Serenata.wav
Pre-gap length 0:00:01.40
Peak level 49.5 %
Track quality 100.0 %
Test CRC FBADAA89
Copy CRC FBADAA89
Copy OK
Track 8
Filename D:\music\rip\Bobby Enriques And Richie Cole - The Wildman Meets Madman (1981) [FLAC]\08 - Um Um.wav
Pre-gap length 0:00:01.50
Peak level 60.5 %
Track quality 100.0 %
Test CRC 29ACBA29
Copy CRC 29ACBA29
Copy OK
No errors occured
End of status report
 
Tau
3072708184 66161804 01 - Groovin' High.wav
2080922392 51854588 02 - Once In A While.wav
266838974 51838124 03 - Yardbird Suite.wav
3785140798 72777980 04 - Wildman Blues.wav
606041167 70235468 05 - On Green Dolphin Street.wav
2942585942 69473420 06 - Blue Hawaii.wav
1545444791 26871644 07 - Serenata.wav
2787879030 55288508 08 - Um Um.wav
auCDtect: CD records authenticity detector, version 0.8.2
Copyright (c) 2004 Oleg Berngardt. All rights reserved.
Copyright (c) 2004 Alexander Djourik. All rights reserved.
------------------------------------------------------------
Processing file: [01 - Groovin' High.wav]
------------------------------------------------------------
This track looks like CDDA with probability 100%
------------------------------------------------------------
Processing file: [02 - Once In A While.wav]
------------------------------------------------------------
This track looks like CDDA with probability 100%
------------------------------------------------------------
Processing file: [03 - Yardbird Suite.wav]
------------------------------------------------------------
This track looks like CDDA with probability 100%
------------------------------------------------------------
Processing file: [04 - Wildman Blues.wav]
------------------------------------------------------------
This track looks like CDDA with probability 100%
------------------------------------------------------------
Processing file: [05 - On Green Dolphin Street.wav]
------------------------------------------------------------
This track looks like CDDA with probability 100%
------------------------------------------------------------
Processing file: [06 - Blue Hawaii.wav]
------------------------------------------------------------
This track looks like CDDA with probability 99%
------------------------------------------------------------
Processing file: [07 - Serenata.wav]
------------------------------------------------------------
This track looks like CDDA with probability 100%
------------------------------------------------------------
Processing file: [08 - Um Um.wav]
------------------------------------------------------------
This track looks like CDDA with probability 100%
------------------------------------------------------------
Final Conclusion:
------------------------------------------------------------
These tracks looks like CDDA with probability 100%
Приватный:
Нет (DHT включён)
Размер:
264.25 Мб (277,081,038 байт) » файлов: 23
Участники:
0 раздают, 1 качают (1 участников всего)
Внешние участники:
5 раздают, 1 качают (6 участников всего) [ Обновить ]
Скорость:
250.54 Кб/c 0/c
Есть вопросы - пишите личное сообщение пользователю M0p94ok.
00:43
65
Нет комментариев. Ваш будет первым!