Поиск

(Bop) [CD] Bill Evans Trio - Empathy (Japan) - 1963, FLAC (image+.cue), lossless

(Bop) [CD] Bill Evans Trio - Empathy (Japan) - 1963, FLAC (image+.cue), lossless
Треклист:
Bill Evans Trio / Empathy (Japan)
Жанр: Bop
Носитель: CD
Страна-производитель диска (релиза): Japan
Год издания: 1963
Издатель (лейбл): Verve
Номер по каталогу: UCCU 9554
Страна исполнителя (группы): USA
Аудиокодек: FLAC (*.flac)
Тип рипа: image+.cue
Битрейт аудио: lossless
Продолжительность: 34:54
Источник (релизер): собственный рип
Наличие сканов в содержимом раздачи: да
Треклист:
1. "The Washington Twist" (Irving Berlin) – 6:26
2. "Danny Boy" (Frederick Weatherly) - 3:42
3. "Let's Go Back to the Waltz" (Berlin) – 4:30
4. "With a Song in My Heart" (Rodgers, Hart) - 9:12
5. "Goodbye" (Gordon Jenkins) - 5:12
6. "I Believe in You" (Frank Loesser) - 5:52
 
Лог создания рипа
Exact Audio Copy V1.0 beta 6 from 9. April 2015
Отчёт EAC об извлечении, выполненном 14. октября 2015, 1:43
Bill Evans Trio / Empathy
Дисковод: MATSHITADVD-RAM UJ8B1AS Adapter: 1 ID: 0
Режим чтения : Достоверность
Использование точного потока : Да
Отключение кэша аудио : Да
Использование указателей C2 : Нет
Коррекция смещения при чтении : 6
Способность читать области Lead-in и Lead-out : Нет
Заполнение пропущенных сэмплов тишиной : Да
Удаление блоков с тишиной в начале и конце : Нет
При вычислениях CRC использовались нулевые сэмплы : Да
Интерфейс : Встроенный Win32-интерфейс для Win NT/2000
Выходной формат : Пользовательский кодировщик
Выбранный битрейт : 128 kBit/s
Качество : Высокий
Добавление ID3-тега : Нет
Утилита сжатия : C:\Program Files (x86)\Exact Audio Copy\Flac\flac.exe
Дополнительные параметры : -V -8 -T "Date=%year%" -T "Genre=%genre%" %source%
TOC извлечённого CD
Трек | Старт | Длительность | Начальный сектор | Конечный сектор
---------------------------------------------------------------------
1 | 0:00.00 | 6:30.50 | 0 | 29299
2 | 6:30.50 | 3:44.37 | 29300 | 46136
3 | 10:15.12 | 4:34.25 | 46137 | 66711
4 | 14:49.37 | 9:16.00 | 66712 | 108411
5 | 24:05.37 | 5:12.38 | 108412 | 131849
6 | 29:18.00 | 5:53.37 | 131850 | 158361
Характеристики диапазона извлечения и сообщения об ошибках
Выбранный диапазон
Имя файла C:\Users\Alex\Downloads\5\Bill Evans Trio - Empathy.wav
Пиковый уровень 100.0 %
Скорость извлечения 1.8 X
Качество диапазона 100.0 %
CRC теста 0B520B7D
CRC копии 0B520B7D
Копирование... OK
Ошибок не произошло
AccurateRip: сводка
Трек 1 : извлечено точно (доверие 3) [039FAC59] (AR v2)
Трек 2 : извлечено точно (доверие 3) [F79A3B8D] (AR v2)
Трек 3 : извлечено точно (доверие 3) [DCE8E10A] (AR v2)
Трек 4 : извлечено точно (доверие 3) [B1CB13B1] (AR v2)
Трек 5 : извлечено точно (доверие 3) [9A564B26] (AR v2)
Трек 6 : извлечено точно (доверие 3) [19034EEB] (AR v2)
Все треки извлечены точно
Конец отчёта
==== Контрольная сумма отчёта 3395A3867DC315D30E26AFC9CC8209D0C97801FADA33053D7E93240B6652A87A ====
 
Фото
По всем вопросам пишите личное сообщение пользователю M0p94ok.
15:33
292
Нет комментариев. Ваш будет первым!