Поиск

(Big Band, Vocal) Brussels Jazz Orchestra & Tutu Puoane — Mama Africa — 2010, FLAC (image+.cue), lossless

(Big Band, Vocal) Brussels Jazz Orchestra & Tutu Puoane — Mama Africa — 2010, FLAC (image+.cue), lossless
Треклист:
Brussels Jazz Orchestra & Tutu Puoane — Mama Africa
Жанр: Big Band, Vocal
Год издания диска: 2010
Издатель (лейбл): Saphrane
Номер по каталогу: S62612
Аудиокодек: FLAC (*.flac)
Тип рипа: image+.cue
Битрейт аудио: lossless
Продолжительность: 71:15
Риппер: PCWhizzkid
Сканы есть
Треклист:
01. The House In Midrand / Jikele' Maweni (9:22)
02. What More Can Be Right (6:15)
03. When I've Passed On (9:32)
04. West Wind (8:32)
05. Mountain Shade (7:40)
06. Thanayi (8:32)
07. Mayibuye (8:20)
08. Africa Is Where My Heart Lies (5:36)
09. Umqokozo (7:25)
 
 
Лог создания рипа
Exact Audio Copy V1.0 beta 1 from 15. November 2010
EAC extraction logfile from 15. July 2011, 20:29
Tutu Puoane & Brussels Jazz Orchestra / Mama Africa
Used drive : HL-DT-STDVDRAM GH22NS40 Adapter: 5 ID: 0
Read mode : Secure
Utilize accurate stream : Yes
Defeat audio cache : Yes
Make use of C2 pointers : No
Read offset correction : 667
Overread into Lead-In and Lead-Out : No
Fill up missing offset samples with silence : Yes
Delete leading and trailing silent blocks : No
Null samples used in CRC calculations : Yes
Used interface : Native Win32 interface for Win NT & 2000
Used output format : User Defined Encoder
Selected bitrate : 1024 kBit/s
Quality : High
Add ID3 tag : No
Command line compressor : C:\Program Files (x86)\Exact Audio Copy\FLAC\FLAC.EXE
Additional command line options : -6 -V -T "ARTIST=%a" -T "TITLE=%t" -T "ALBUM=%g" -T "DATE=%y" -T "TRACKNUMBER=%n" -T "GENRE=%m" -T "COMMENT=%e" %j--picture="%i"%j %s -o %d
TOC of the extracted CD
Track | Start | Length | Start sector | End sector
---------------------------------------------------------
1 | 0:00.00 | 9:22.27 | 0 | 42176
2 | 9:22.27 | 6:15.07 | 42177 | 70308
3 | 15:37.34 | 9:32.04 | 70309 | 113212
4 | 25:09.38 | 8:32.04 | 113213 | 151616
5 | 33:41.42 | 7:39.54 | 151617 | 186095
6 | 41:21.21 | 8:31.68 | 186096 | 224488
7 | 49:53.14 | 8:19.66 | 224489 | 261979
8 | 58:13.05 | 5:36.32 | 261980 | 287211
9 | 63:49.37 | 7:25.01 | 287212 | 320587
Range status and errors
Selected range
Filename T:\Tutu Puoane & Brussels Jazz Orchestra - Mama Africa\Tutu Puoane & Brussels Jazz Orchestra - Mama Africa.wav
Peak level 99.9 %
Extraction speed 0.2 X
Range quality 99.9 %
Test CRC 22462EA3
Copy CRC 22462EA3
Copy OK
No errors occurred
AccurateRip summary
Track 1 not present in database
Track 2 not present in database
Track 3 not present in database
Track 4 not present in database
Track 5 not present in database
Track 6 not present in database
Track 7 not present in database
Track 8 not present in database
Track 9 not present in database
None of the tracks are present in the AccurateRip database
End of status report
==== Log checksum 5057F8992D51E6390F960FDE38C4F2241673BCE52BA7221993ABBEDEF70B6E24 ====
 
Содержание индексной карты (.CUE)
REM GENRE Jazz
REM DATE 2009
REM DISCID 8310B209
REM COMMENT "ExactAudioCopy v1.0b1"
PERFORMER "Brussels Jazz Orchestra & Tutu Puoane"
TITLE "Mama Africa"
FILE "Tutu Puoane & Brussels Jazz Orchestra - Mama Africa.flac" WAVE
TRACK 01 AUDIO
TITLE "The House In Midrand / Jikele' Maweni"
PERFORMER "Brussels Jazz Orchestra & Tutu Puoane"
INDEX 01 00:00:00
TRACK 02 AUDIO
TITLE "What More Can Be Right"
PERFORMER "Brussels Jazz Orchestra & Tutu Puoane"
INDEX 00 09:22:00
INDEX 01 09:22:27
TRACK 03 AUDIO
TITLE "When I've Passed On"
PERFORMER "Brussels Jazz Orchestra & Tutu Puoane"
INDEX 01 15:37:34
TRACK 04 AUDIO
TITLE "West Wind"
PERFORMER "Brussels Jazz Orchestra & Tutu Puoane"
INDEX 01 25:09:38
TRACK 05 AUDIO
TITLE "Mountain Shade"
PERFORMER "Brussels Jazz Orchestra & Tutu Puoane"
INDEX 00 33:39:61
INDEX 01 33:41:42
TRACK 06 AUDIO
TITLE "Thanayi"
PERFORMER "Brussels Jazz Orchestra & Tutu Puoane"
INDEX 01 41:21:21
TRACK 07 AUDIO
TITLE "Mayibuye"
PERFORMER "Brussels Jazz Orchestra & Tutu Puoane"
INDEX 01 49:53:14
TRACK 08 AUDIO
TITLE "Africa Is Where My Heart Lies"
PERFORMER "Brussels Jazz Orchestra & Tutu Puoane"
INDEX 01 58:13:05
TRACK 09 AUDIO
TITLE "Umqokozo"
PERFORMER "Brussels Jazz Orchestra & Tutu Puoane"
INDEX 01 63:49:37
 
Об альбоме (сборнике)
On 26 February 2010 Tutu Puoane and the BJO presented their new album Mama Africa at the De Roma in Borgerhout to an enthusiastic audience. Elaine Britton of the Makeba Centre for Girls in Midrand (South Africa) was the special guest of the evening. The centre was set up in 2003 by Miriam Makeba, a global star and a defender of humanitarian causes. The musicians chose to donate their entire profits to the Makeba Centre - a welcome gesture during these difficult financial times. Mrs Britton, together with Tutu and the BJO, also met with local, provincial and national authorities to discuss development and collaboration.
 
Состав
Tutu Puoane (vocals); Hendrik Braeckman (guitar); Dieter Limbourg (flute, clarinet, soprano saxophone, alto saxophone); Frank Vaganée (flute, soprano saxophone, alto saxophone); Kurt Van Herck (flute, tenor saxophone); Bart Defoort (clarinet, tenor saxophone); Bo Van Der Werf (bass clarinet, baritone saxophone); Serge Plume, Pierre Drevet, Jeroen Van Malderen, Nico Schepers (trumpet, flugelhorn); Frederik Heirman, Lode Mertens (trombone); Laurent Hendrick (bass trombone); Nathalie Loriers (piano); Jos Machtel (double bass); Klaas Balijon (drums)
22:04
265
Нет комментариев. Ваш будет первым!