Поиск

(avantgarde, modern composition, musical alchemy) John Zorn - IAO : Music In Sacred Light (feat. Greg Cohen, Bill Laswell, Mike Patton) - 2002, FLAC (image+.cue), lossless

(avantgarde, modern composition, musical alchemy) John Zorn - IAO : Music In Sacred Light (feat. Greg Cohen, Bill Laswell, Mike Patton) - 2002, FLAC (image+.cue), lossless
Треклист:
John Zorn - IAO : Music In Sacred Light (feat. Greg Cohen, Bill Laswell, Mike Patton)
Жанр: avantgarde, modern composition, musical alchemy
Год выпуска диска: 2002
Производитель диска: USA (Tzadik)
Аудио кодек: FLAC
Тип рипа: image+.cue
Битрейт аудио: lossless
Продолжительность: 51.24
Трэклист:
1. Invocation
2. Sex Magick
3. Sacred Rites of the Left Hand Path
4. The Clavicle of Solomon
5. Lucifer Rising
6. Leviathan
7. Mysteries
Доп. информация: Cyro Baptista / Jennifer Charles / Greg Cohen / Beth Anne Hatton / Bill Laswell / Rebecca Moore / Mike Patton / Jim Pugliese / Jamie Saft / John Zorn
Эмбиент, ритуальные перкуссионные пассажи, выдающаяся пьеса для женского хора, новаторские идеи в экспериментальной электронике, радикальный дэд-метал - таково жанровое разнообразие этой работы Зорна, вдохновителями который послужили труды Алистера Кроули и Кеннета Энжера. Степень креативности и совершенства каждой композиции черезвычайно высока - в целом это творение Мастера являет собой ничто иное, как некую музыкальную алхимию, своеобразный метафизический трип по темным уголкам человеческой психики и разума, изменяющий сознание и восприятие реальности.
Zorn at his creative best.
 
eac log
Exact Audio Copy V0.99 prebeta 4 from 23. January 2008
Отчёт EAC об извлечении, выполненном 12. сентября 2008, 12:58
John Zorn / IAO. Music In Sacred Light
Дисковод: Optiarc DVD RW AD-7170A Adapter: 0 ID: 1
Режим чтения : Достоверность
Использование точного потока : Да
Отключение кэша аудио : Да
Использование указателей C2 : Нет
Коррекция смещения при чтении : 48
Способность читать области Lead-in и Lead-out : Нет
Заполнение пропущенных сэмплов тишиной : Да
Удаление блоков с тишиной в начале и конце : Нет
При вычислениях CRC использовались нулевые сэмплы : Да
Интерфейс : Встроенный Win32-интерфейс для Win NT/2000
Выходной формат : Пользовательский кодировщик
Выбранный битрейт : 768 kBit/s
Качество : Высокий
Добавление ID3-тэга : Нет
Утилита сжатия : D:\Program Files\Exact Audio Copy\FLAC\FLAC.EXE
Дополнительные параметры : -6 -V -T "ARTIST=%a" -T "TITLE=%t" -T "ALBUM=%g" -T "DATE=%y" -T "TRACKNUMBER=%n" -T "GENRE=%m" -T "COMMENT=%e" %s -o %d
TOC извлечённого CD
Трек | Старт | Длительность | Начальный сектор | Конечный сектор
---------------------------------------------------------------------
1 | 0:00.00 | 7:19.00 | 0 | 32924
2 | 7:19.00 | 13:26.00 | 32925 | 93374
3 | 20:45.00 | 6:31.00 | 93375 | 122699
4 | 27:16.00 | 9:28.00 | 122700 | 165299
5 | 36:44.00 | 5:23.00 | 165300 | 189524
6 | 42:07.00 | 3:26.00 | 189525 | 204974
7 | 45:33.00 | 5:50.68 | 204975 | 231292
Характеристики диапазона извлечения и сообщения об ошибках
Выбранный диапазон
Имя файла D:\EAC\John Zorn - IAO. Music In Sacred Light.wav
Пиковый уровень 99.9 %
Качество диапазона 100.0 %
CRC копии 241C54C0
Копирование... OK
Ошибок не произошло
AccurateRip: сводка
Трек 1 точность не определена (достоверность 2) [2588FB58], AccurateRip вернул [A602292E]
Трек 2 точность не определена (достоверность 2) [7A6D8748], AccurateRip вернул [E6E87A25]
Трек 3 точность не определена (достоверность 2) [94019D32], AccurateRip вернул [AE62EDA3]
Трек 4 точность не определена (достоверность 2) [EE0CDC98], AccurateRip вернул [C1BE2979]
Трек 5 точность не определена (достоверность 2) [E76DAC55], AccurateRip вернул [C50BF545]
Трек 6 точность не определена (достоверность 2) [08090E60], AccurateRip вернул [3B1116D4]
Трек 7 точность не определена (достоверность 2) [756725C6], AccurateRip вернул [6652A688]
Ни один трек не прошёл проверки на точность
В вашей базе может быть иной вариант штамповки диска
Конец отчёта
Приватный:
Нет (DHT включён)
Размер:
277.20 Мб (290,667,631 байт) » файлов: 3
Участники:
0 раздают, 0 качают (0 участников всего)
Внешние участники:
5 раздают, 1 качают (6 участников всего) [ Обновить ]
No seeders - write a personal message to user M0p94ok. Нет сидеров - пишите личное сообщение пользователю M0p94ok.
03:26
97
Нет комментариев. Ваш будет первым!