Вы используете незарегистрированную версию компонента "Вкладки"!

Поиск

(avant-jazz/modern creative/avant-prog) Jean Derome et les Dangereux Zhoms - To Continue - 2007, FLAC (tracks+.cue) lossless

(avant-jazz/modern creative/avant-prog) Jean Derome et les Dangereux Zhoms - To Continue - 2007, FLAC (tracks+.cue) lossless
Треклист:
Jean Derome et les Dangereux Zhoms / To Continue
Жанр: avant-jazz/modern creative/avant-prog
Страна-производитель диска: Canada
Год издания диска: 2007
Издатель (лейбл): DAME
Номер по каталогу: AM172CD
Страна: Canada
Аудио кодек: FLAC (*.flac)
Тип рипа: tracks+.cue
Битрейт аудио: lossless
Продолжительность: 64:45
Источник (релизер): собственный рип
Наличие сканов в содержимом раздачи: да
Треклист:
1. Hiboux
2. Nez Qui coule
3. To Continue
4. Cogne un genou
5. La Grenouille et le Boeuf
6. Prieres
 
Лог создания рипа
Exact Audio Copy V0.99 prebeta 5 from 4. May 2009
EAC extraction logfile from 27. January 2011, 11:02
Jean Derome et les Dangereux Zhoms / To Continue
Used drive : Optiarc DVD RW AD-7243S Adapter: 0 ID: 1
Read mode : Secure
Utilize accurate stream : Yes
Defeat audio cache : Yes
Make use of C2 pointers : No
Read offset correction : 48
Overread into Lead-In and Lead-Out : No
Fill up missing offset samples with silence : Yes
Delete leading and trailing silent blocks : No
Null samples used in CRC calculations : Yes
Used interface : Native Win32 interface for Win NT & 2000
Gap handling : Appended to previous track
Used output format : User Defined Encoder
Selected bitrate : 768 kBit/s
Quality : High
Add ID3 tag : No
Command line compressor : C:\Program Files\Exact Audio Copy\FLAC\FLAC.EXE
Additional command line options : -6 -V -T "ARTIST=%a" -T "TITLE=%t" -T "ALBUM=%g" -T "DATE=%y" -T "TRACKNUMBER=%n" -T "GENRE=%m" -T "COMMENT=%e" %s -o %d
TOC of the extracted CD
Track | Start | Length | Start sector | End sector
---------------------------------------------------------
1 | 0:00.00 | 10:41.55 | 0 | 48129
2 | 10:41.55 | 5:03.68 | 48130 | 70922
3 | 15:45.48 | 6:30.38 | 70923 | 100210
4 | 22:16.11 | 8:33.68 | 100211 | 138753
5 | 30:50.04 | 9:37.74 | 138754 | 182102
6 | 40:28.03 | 24:15.55 | 182103 | 291282
Track 1
Filename C:\Documents and Settings\S\Мои документы\Torrent раздача\01.Jean Derome et les Dangereux Zhoms-Hiboux.wav
Pre-gap length 0:00:02.00
Peak level 98.8 %
Track quality 100.0 %
Test CRC B85A96D1
Copy CRC B85A96D1
Track not present in AccurateRip database
Copy OK
Track 2
Filename C:\Documents and Settings\S\Мои документы\Torrent раздача\02.Jean Derome et les Dangereux Zhoms-Nez qui coule.wav
Pre-gap length 0:00:04.21
Peak level 98.8 %
Track quality 100.0 %
Test CRC E052B322
Copy CRC E052B322
Track not present in AccurateRip database
Copy OK
Track 3
Filename C:\Documents and Settings\S\Мои документы\Torrent раздача\03.Jean Derome et les Dangereux Zhoms-To Continue.wav
Pre-gap length 0:00:02.38
Peak level 98.8 %
Track quality 99.9 %
Test CRC 0AEE2B0B
Copy CRC 0AEE2B0B
Track not present in AccurateRip database
Copy OK
Track 4
Filename C:\Documents and Settings\S\Мои документы\Torrent раздача\04.Jean Derome et les Dangereux Zhoms-Cognй un genou.wav
Pre-gap length 0:00:02.65
Peak level 98.8 %
Track quality 100.0 %
Test CRC 85DE7B65
Copy CRC 85DE7B65
Track not present in AccurateRip database
Copy OK
Track 5
Filename C:\Documents and Settings\S\Мои документы\Torrent раздача\05.Jean Derome et les Dangereux Zhoms-La Grenouille et le Bњuf.wav
Pre-gap length 0:00:03.28
Peak level 98.8 %
Track quality 100.0 %
Test CRC 4CDB3211
Copy CRC 4CDB3211
Track not present in AccurateRip database
Copy OK
Track 6
Filename C:\Documents and Settings\S\Мои документы\Torrent раздача\06.Jean Derome et les Dangereux Zhoms-Priиres.wav
Peak level 98.8 %
Track quality 100.0 %
Test CRC 469036A4
Copy CRC 469036A4
Track not present in AccurateRip database
Copy OK
None of the tracks are present in the AccurateRip database
No errors occurred
End of status report
 
CUE
REM GENRE Avantgarde
REM DATE 2007
REM DISCID 4B0F2B06
REM COMMENT "ExactAudioCopy v0.99pb5"
PERFORMER "Jean Derome et les Dangereux Zhoms"
TITLE "To Continue"
FILE "01.Jean Derome et les Dangereux Zhoms-Hiboux.wav" WAVE
TRACK 01 AUDIO
TITLE "Hiboux"
PERFORMER "Jean Derome et les Dangereux Zhoms"
FLAGS DCP
INDEX 01 00:00:00
TRACK 02 AUDIO
TITLE "Nez qui coule"
PERFORMER "Jean Derome et les Dangereux Zhoms"
FLAGS DCP
INDEX 00 10:37:34
FILE "02.Jean Derome et les Dangereux Zhoms-Nez qui coule.wav" WAVE
INDEX 01 00:00:00
TRACK 03 AUDIO
TITLE "To Continue"
PERFORMER "Jean Derome et les Dangereux Zhoms"
FLAGS DCP
INDEX 00 05:01:30
FILE "03.Jean Derome et les Dangereux Zhoms-To Continue.wav" WAVE
INDEX 01 00:00:00
TRACK 04 AUDIO
TITLE "Cognй un genou"
PERFORMER "Jean Derome et les Dangereux Zhoms"
FLAGS DCP
INDEX 00 06:27:48
FILE "04.Jean Derome et les Dangereux Zhoms-Cognй un genou.wav" WAVE
INDEX 01 00:00:00
TRACK 05 AUDIO
TITLE "La Grenouille et le Bњuf"
PERFORMER "Jean Derome et les Dangereux Zhoms"
FLAGS DCP
INDEX 00 08:30:40
FILE "05.Jean Derome et les Dangereux Zhoms-La Grenouille et le Bњuf.wav" WAVE
INDEX 01 00:00:00
FILE "06.Jean Derome et les Dangereux Zhoms-Priиres.wav" WAVE
TRACK 06 AUDIO
TITLE "Priиres"
PERFORMER "Jean Derome et les Dangereux Zhoms"
FLAGS DCP
INDEX 01 00:00:00
 
Состав
Jean Derome - sax, flute
Tom Walsh - trombone
Guillaume Dostaler - piano
Pierre Cartier - basse
Pierre Tanguay - batterie
Другие раздачи
http://rutracker.org/forum/search.php?uid=17163016
Any questions -> support@pro-jazz.com. По всем вопросам пишите -> support@pro-jazz.com
08:00
140
Нет комментариев. Ваш будет первым!