Вы используете незарегистрированную версию компонента "Вкладки"!

Поиск

(Avant-Garde/Post Bop) Сharles Mingus - The Impulse Story - 2006, FLAC (image+.cue), lossless

Треклист:
Сharles Mingus - The Impulse Story
Жанр: Avant-Garde/Post Bop
Год выпуска диска: 2006
Производитель диска: Украина (лицензия)
Аудио кодек: FLAC
Тип рипа: image+.cue
Битрейт аудио: lossless
Продолжительность: 60:21
Трэклист:
1. Track A – Solo Dancer 6:35
2. Track C – Group Dancers 7:21
3. Myself When I Am Real 7:35
4. Body and Soul 4:31
5. Roland Kirk’s Message 2:40
6. Orange Was the Color of Her Dress, Then Silk Blues 4:13
7. Mood Indigo 4:43
8. II B.S. (aka “Haitian Fight Song”) 4:46
9. Theme for Lester Young (aka “Goodbye Pork Pie Hat) 5:50
10. Better Get Hit in Yo’Soul 6:28
11. Freedom 5:10
Доп. информация: Personnel include: Charles Mingus (upright bass); Jerome Richardson (flute, saxophone); Eric Dolphy (saxophone); Charlie Mariano (alto saxophone); Booker Ervin (tenor saxophone); Eddie Preston (trumpet); Don Butterfield (tuba); Walter Perkins (drums).
История сотрудничества Мингуса с историческим лейблом «Impulse!» охватывает три его альбома, записанные в 1963 году: «The Black Saint and the Sinner Lady», считающийся по мнениям большинства джазовых критиков одним из лучших альбомов Чарльза (трэки 1 и 2); «Mingus Plays Piano» - альбом, где виртуозный контрабасист раскрылся еще и как талантливый пианист - работа является полной противоположностью знойным оркестровым интерпретациям, присутствующих на остальных его альбомах (трэки 3-6) и, наконец, альбом «Mingus Mingus Mingus Mingus Mingus» (трэки 7-11).
 
Отчет EAC
Exact Audio Copy V0.99 prebeta 5 from 4. May 2009
EAC extraction logfile from 11. September 2009, 11:59
Charles Mingus / Charles Mingus - The Impulse Story
Used drive : HL-DT-STDVD-RAM GSA-H55N Adapter: 4 ID: 0
Read mode : Secure
Utilize accurate stream : Yes
Defeat audio cache : Yes
Make use of C2 pointers : No
Read offset correction : 102
Overread into Lead-In and Lead-Out : No
Fill up missing offset samples with silence : Yes
Delete leading and trailing silent blocks : No
Null samples used in CRC calculations : Yes
Used interface : Native Win32 interface for Win NT & 2000
Used output format : User Defined Encoder
Selected bitrate : 768 kBit/s
Quality : High
Add ID3 tag : No
Command line compressor : C:\Program Files\Exact Audio Copy\FLAC\FLAC.EXE
Additional command line options : -8 -V -T "ARTIST=%a" -T "TITLE=%t" -T "ALBUM=%g" -T "DATE=%y" -T "TRACKNUMBER=%n" -T "GENRE=%m" -T "COMMENT=%e" %s -o %d
TOC of the extracted CD
Track | Start | Length | Start sector | End sector
---------------------------------------------------------
1 | 0:00.00 | 6:37.70 | 0 | 29844
2 | 6:37.70 | 7:23.04 | 29845 | 63073
3 | 14:00.74 | 7:37.07 | 63074 | 97355
4 | 21:38.06 | 4:34.19 | 97356 | 117924
5 | 26:12.25 | 2:43.02 | 117925 | 130151
6 | 28:55.27 | 4:16.52 | 130152 | 149403
7 | 33:12.04 | 4:45.57 | 149404 | 170835
8 | 37:57.61 | 4:48.70 | 170836 | 192505
9 | 42:46.56 | 5:51.66 | 192506 | 218896
10 | 48:38.47 | 6:32.18 | 218897 | 248314
11 | 55:10.65 | 5:10.21 | 248315 | 271585
Range status and errors
Selected range
Filename D:\Олег\Мои раздачи\Charles Mingus - The Impulse Story.wav
Peak level 100.0 %
Range quality 99.9 %
Test CRC 2CDBAAFD
Copy CRC 2CDBAAFD
Copy OK
No errors occurred
End of status report
Any questions -> support@pro-jazz.com. По всем вопросам пишите -> support@pro-jazz.com
14:35
149
Нет комментариев. Ваш будет первым!