Вы используете незарегистрированную версию компонента "Вкладки"!

Поиск

(Avant-Garde, Unit Records) Sylvie Courvoisier Quintetto - Sauvagerie courtoise - 1994, FLAC (tracks+.cue), lossless

(Avant-Garde, Unit Records) Sylvie Courvoisier Quintetto - Sauvagerie courtoise - 1994, FLAC (tracks+.cue), lossless
Треклист:
Sylvie Courvoisier Quintetto / Sauvagerie courtoise
Жанр: Avant-Garde, Unit Records
Страна-производитель диска: Switzerland
Год издания: 1994
Издатель (лейбл): Unit Records
Номер по каталогу: UTR 4066 CD
Аудиокодек: FLAC (*.flac)
Тип рипа: tracks+.cue
Битрейт аудио: lossless
Продолжительность: 54:39
Источник (релизер): Max Monteiro
Наличие сканов в содержимом раздачи: нет
Треклист:
1. Entre une salamandre et une bande de gaze 6:34
2. Cherchez l’intrus 12:28
La Petite Fille au ballon rouge
3. Premier Mouvement 1:21
4. Deuxième Mouvement 6:15
5. Troisième Mouvement 2:09
6. Bizarre Bizarre 7:49
7. Choral embryonnaire 11:56
8. Sarcastonique Greli-Grelot 6:06
Musique de Sylvie Courvoisier.
 
Лог создания рипа
Exact Audio Copy V1.0 beta 3 from 29. August 2011
EAC extraction logfile from 8. May 2013, 15:09
Sylvie Courvoisier Quintetto / Sauvagerie courtoise
Used drive : SlimtypeeNAU508 5 Adapter: 1 ID: 0
Read mode : Secure
Utilize accurate stream : Yes
Defeat audio cache : Yes
Make use of C2 pointers : No
Read offset correction : 6
Overread into Lead-In and Lead-Out : No
Fill up missing offset samples with silence : Yes
Delete leading and trailing silent blocks : No
Null samples used in CRC calculations : Yes
Used interface : Native Win32 interface for Win NT & 2000
Gap handling : Appended to previous track
Used output format : User Defined Encoder
Selected bitrate : 768 kBit/s
Quality : High
Add ID3 tag : No
Command line compressor : C:\Program Files (x86)\Exact Audio Copy\Flac\flac.exe
Additional command line options : -8 -V -T "ARTIST=%artist%" -T "TITLE=%title%" -T "ALBUM=%albumtitle%" -T "DATE=%year%" -T "TRACKNUMBER=%tracknr%" -T "GENRE=%genre%" -T "PERFORMER=%albuminterpret%" -T "COMPOSER=%composer%" %haslyrics%--tag-from-file=LYRICS="%lyricsfile%"%haslyrics% -T "ALBUMARTIST=%albumartist%" -T "DISCNUMBER=%cdnumber%" -T "TOTALDISCS=%totalcds%" -T "TOTALTRACKS=%numtracks%" -T "COMMENT=%comment%" %source% -o %dest%
TOC of the extracted CD
Track | Start | Length | Start sector | End sector
---------------------------------------------------------
1 | 0:00.00 | 6:34.05 | 0 | 29554
2 | 6:34.05 | 12:27.55 | 29555 | 85634
3 | 19:01.60 | 1:21.07 | 85635 | 91716
4 | 20:22.67 | 6:15.18 | 91717 | 119859
5 | 26:38.10 | 2:08.65 | 119860 | 129524
6 | 28:47.00 | 7:49.37 | 129525 | 164736
7 | 36:36.37 | 11:56.35 | 164737 | 218471
8 | 48:32.72 | 6:05.65 | 218472 | 245911
Track 1
Filename C:\EAC rips\01 - Entre une salamandre et une bande de gaze.wav
Pre-gap length 0:00:02.00
Peak level 70.8 %
Extraction speed 1.1 X
Track quality 99.9 %
Test CRC 611EE2B4
Copy CRC 611EE2B4
Track not present in AccurateRip database
Copy OK
Track 2
Filename C:\EAC rips\02 - Cherchez l'intrus.wav
Peak level 70.4 %
Extraction speed 1.5 X
Track quality 100.0 %
Test CRC 9F2A3170
Copy CRC 9F2A3170
Track not present in AccurateRip database
Copy OK
Track 3
Filename C:\EAC rips\03 - La Petite Fille au ballon rouge - Premier Mouvement.wav
Peak level 74.8 %
Extraction speed 1.2 X
Track quality 100.0 %
Test CRC 911B2FAC
Copy CRC 911B2FAC
Track not present in AccurateRip database
Copy OK
Track 4
Filename C:\EAC rips\04 - La Petite Fille au ballon rouge - Deuxième Mouvement.wav
Peak level 88.8 %
Extraction speed 1.7 X
Track quality 100.0 %
Test CRC 63EC1673
Copy CRC 63EC1673
Track not present in AccurateRip database
Copy OK
Track 5
Filename C:\EAC rips\05 - La Petite Fille au ballon rouge - Troisième Mouvement.wav
Peak level 32.4 %
Extraction speed 1.5 X
Track quality 100.0 %
Test CRC FDBB63EF
Copy CRC FDBB63EF
Track not present in AccurateRip database
Copy OK
Track 6
Filename C:\EAC rips\06 - Bizarre bizarre.wav
Peak level 94.9 %
Extraction speed 1.9 X
Track quality 100.0 %
Test CRC C7136D35
Copy CRC C7136D35
Track not present in AccurateRip database
Copy OK
Track 7
Filename C:\EAC rips\07 - Choral embryonnaire.wav
Peak level 91.2 %
Extraction speed 2.0 X
Track quality 99.9 %
Test CRC 0DD37630
Copy CRC 0DD37630
Track not present in AccurateRip database
Copy OK
Track 8
Filename C:\EAC rips\08 - Sarcastonique Greli-Grelot.wav
Peak level 93.6 %
Extraction speed 2.0 X
Track quality 99.9 %
Test CRC A3B30E6B
Copy CRC A3B30E6B
Track not present in AccurateRip database
Copy OK
None of the tracks are present in the AccurateRip database
No errors occurred
End of status report
---- CUETools DB Plugin V2.1.4
[CTDB TOCID: nHS_7YRq0Iwkaj2M03QPWnJhhhI-] disk not present in database
Submit result: nHS_7YRq0Iwkaj2M03QPWnJhhhI- has been uploaded
==== Log checksum A56DB95D65D87D885462DBD1F523A6E5981BDB2655071D257F998773436FD3DD ====
 
Содержание индексной карты (.CUE)
REM GENRE Jazz
REM DATE 1994
REM DISCID 640CCE08
REM COMMENT "ExactAudioCopy v1.0b3"
PERFORMER "Sylvie Courvoisier Quintetto"
TITLE "Sauvagerie courtoise"
FILE "01 - Entre une salamandre et une bande de gaze.wav" WAVE
TRACK 01 AUDIO
TITLE "Entre une salamandre et une bande de gaze"
PERFORMER "Sylvie Courvoisier Quintetto"
INDEX 01 00:00:00
FILE "02 - Cherchez l'intrus.wav" WAVE
TRACK 02 AUDIO
TITLE "Cherchez l'intrus"
PERFORMER "Sylvie Courvoisier Quintetto"
INDEX 01 00:00:00
FILE "03 - La Petite Fille au ballon rouge - Premier Mouvement.wav" WAVE
TRACK 03 AUDIO
TITLE "La Petite Fille au ballon rouge: Premier Mouvement"
PERFORMER "Sylvie Courvoisier Quintetto"
INDEX 01 00:00:00
FILE "04 - La Petite Fille au ballon rouge - Deuxième Mouvement.wav" WAVE
TRACK 04 AUDIO
TITLE "La Petite Fille au ballon rouge: Deuxième Mouvement "
PERFORMER "Sylvie Courvoisier Quintetto"
INDEX 01 00:00:00
FILE "05 - La Petite Fille au ballon rouge - Troisième Mouvement.wav" WAVE
TRACK 05 AUDIO
TITLE "La Petite Fille au ballon rouge: Troisième Mouvement"
PERFORMER "Sylvie Courvoisier Quintetto"
INDEX 01 00:00:00
FILE "06 - Bizarre bizarre.wav" WAVE
TRACK 06 AUDIO
TITLE "Bizarre bizarre"
PERFORMER "Sylvie Courvoisier Quintetto"
INDEX 01 00:00:00
FILE "07 - Choral embryonnaire.wav" WAVE
TRACK 07 AUDIO
TITLE "Choral embryonnaire"
PERFORMER "Sylvie Courvoisier Quintetto"
INDEX 01 00:00:00
FILE "08 - Sarcastonique Greli-Grelot.wav" WAVE
TRACK 08 AUDIO
TITLE "Sarcastonique Greli-Grelot"
PERFORMER "Sylvie Courvoisier Quintetto"
INDEX 01 00:00:00
Доп. информация: Live sur 2 pistes lors du Cully Lavaux Jazz Festival, le 26 mars 1994.
 
Состав
Guglielmo Pagnozzi – saxophones
Lauro Rossi – trombone
Baenz Oester – contrebasse
Pascal Portner – batterie
Sylvie Courvoisier – piano, composition
Any questions -> support@pro-jazz.com. По всем вопросам пишите -> support@pro-jazz.com
13:04
157
Нет комментариев. Ваш будет первым!