Вы используете незарегистрированную версию компонента "Вкладки"!

Поиск

(Avant-Garde, Punk Jazz) Bond, Alfred Vogel, Lucien Dubuis - Hang Em High - 2013, FLAC (tracks+.cue), lossless

(Avant-Garde, Punk Jazz) Bond, Alfred Vogel, Lucien Dubuis - Hang Em High - 2013, FLAC (tracks+.cue), lossless
Треклист:
Bond, Alfred Vogel, Lucien Dubuis / Hang Em High
Жанр: Avant-Garde, Punk Jazz
Страна-производитель диска: Poland
Год издания: 2013
Издатель (лейбл): Gig Ant Records
Аудиокодек: FLAC (*.flac)
Тип рипа: tracks+.cue
Битрейт аудио: lossless
Продолжительность: 51:32
Источник (релизер): я
Наличие сканов в содержимом раздачи: да
Треклист:
01. HangEmHigh 3:08
02. Sailing 5:44
03. Dubfo 5:29
04. Nascar 5:05
05. Wavin’ 6:05
06. Feefeecult 4:47
07. The Bug 5:37
08. Ballad 4:59
09. Roadeo 6:11
10. Intro 4:27
Composed by Bond, arranged together with Alfred Vogel and Lucien Dubuis.
Recorded live at Boomslang Studio in January 2013. No edits, no overdubs.
Bond – 2-String Slide Bass, Slide FX and Kalimba on « Wavin’ »
Alfred Vogel – Drums, Percussion
Lucien Dubuis – Tenor Sax, Bass and Contrabass Clarinets
 
Лог создания рипа
Exact Audio Copy V1.0 beta 3 from 29. August 2011
EAC extraction logfile from 16. October 2013, 17:09
Bond, Alfred Vogel, Lucien Dubuis / Hang Em High
Used drive : SlimtypeeNAU508 5 Adapter: 1 ID: 0
Read mode : Secure
Utilize accurate stream : Yes
Defeat audio cache : Yes
Make use of C2 pointers : No
Read offset correction : 6
Overread into Lead-In and Lead-Out : No
Fill up missing offset samples with silence : Yes
Delete leading and trailing silent blocks : No
Null samples used in CRC calculations : Yes
Used interface : Native Win32 interface for Win NT & 2000
Gap handling : Appended to previous track
Used output format : User Defined Encoder
Selected bitrate : 768 kBit/s
Quality : High
Add ID3 tag : No
Command line compressor : C:\Program Files (x86)\Exact Audio Copy\Flac\flac.exe
Additional command line options : -8 -V -T "ARTIST=%artist%" -T "TITLE=%title%" -T "ALBUM=%albumtitle%" -T "DATE=%year%" -T "TRACKNUMBER=%tracknr%" -T "GENRE=%genre%" -T "PERFORMER=%albuminterpret%" -T "COMPOSER=%composer%" %haslyrics%--tag-from-file=LYRICS="%lyricsfile%"%haslyrics% -T "ALBUMARTIST=%albumartist%" -T "DISCNUMBER=%cdnumber%" -T "TOTALDISCS=%totalcds%" -T "TOTALTRACKS=%numtracks%" -T "COMMENT=%comment%" %source% -o %dest%
TOC of the extracted CD
Track | Start | Length | Start sector | End sector
---------------------------------------------------------
1 | 0:00.00 | 3:08.02 | 0 | 14101
2 | 3:08.02 | 5:43.59 | 14102 | 39885
3 | 8:51.61 | 5:28.65 | 39886 | 64550
4 | 14:20.51 | 5:04.67 | 64551 | 87417
5 | 19:25.43 | 6:04.50 | 87418 | 114767
6 | 25:30.18 | 4:47.15 | 114768 | 136307
7 | 30:17.33 | 5:37.17 | 136308 | 161599
8 | 35:54.50 | 4:58.70 | 161600 | 184019
9 | 40:53.45 | 6:10.49 | 184020 | 211818
10 | 47:04.19 | 4:27.32 | 211819 | 231875
Track 1
Filename C:\EAC rips\01 - HangEmHigh.wav
Pre-gap length 0:00:02.00
Peak level 98.8 %
Extraction speed 2.0 X
Track quality 100.0 %
Test CRC 338B5D76
Copy CRC 338B5D76
Track not present in AccurateRip database
Copy OK
Track 2
Filename C:\EAC rips\02 - Sailing.wav
Pre-gap length 0:00:01.38
Peak level 98.8 %
Extraction speed 2.4 X
Track quality 100.0 %
Test CRC 2974B786
Copy CRC 2974B786
Track not present in AccurateRip database
Copy OK
Track 3
Filename C:\EAC rips\03 - Dubfo.wav
Pre-gap length 0:00:01.38
Peak level 98.8 %
Extraction speed 2.7 X
Track quality 100.0 %
Test CRC B492F4BD
Copy CRC B492F4BD
Track not present in AccurateRip database
Copy OK
Track 4
Filename C:\EAC rips\04 - Nascar.wav
Pre-gap length 0:00:01.38
Peak level 98.8 %
Extraction speed 2.9 X
Track quality 100.0 %
Test CRC C2370B00
Copy CRC C2370B00
Track not present in AccurateRip database
Copy OK
Track 5
Filename C:\EAC rips\05 - Wavin'.wav
Pre-gap length 0:00:01.38
Peak level 98.8 %
Extraction speed 3.2 X
Track quality 100.0 %
Test CRC 90B07521
Copy CRC 90B07521
Track not present in AccurateRip database
Copy OK
Track 6
Filename C:\EAC rips\06 - Feefeecult.wav
Pre-gap length 0:00:03.13
Peak level 98.8 %
Extraction speed 3.4 X
Track quality 100.0 %
Test CRC 37319B79
Copy CRC 37319B79
Track not present in AccurateRip database
Copy OK
Track 7
Filename C:\EAC rips\07 - The Bug.wav
Pre-gap length 0:00:01.38
Peak level 98.8 %
Extraction speed 3.7 X
Track quality 100.0 %
Test CRC C8BAF987
Copy CRC C8BAF987
Track not present in AccurateRip database
Copy OK
Track 8
Filename C:\EAC rips\08 - Ballad.wav
Pre-gap length 0:00:03.17
Peak level 98.8 %
Extraction speed 3.8 X
Track quality 100.0 %
Test CRC 56917E4C
Copy CRC 56917E4C
Track not present in AccurateRip database
Copy OK
Track 9
Filename C:\EAC rips\09 - Roadeo.wav
Pre-gap length 0:00:01.37
Peak level 98.8 %
Extraction speed 4.1 X
Track quality 100.0 %
Test CRC 93C1CED4
Copy CRC 93C1CED4
Track not present in AccurateRip database
Copy OK
Track 10
Filename C:\EAC rips\10 - Intro.wav
Pre-gap length 0:00:01.38
Peak level 98.8 %
Extraction speed 4.1 X
Track quality 100.0 %
Test CRC 7BBB9017
Copy CRC 7BBB9017
Track not present in AccurateRip database
Copy OK
None of the tracks are present in the AccurateRip database
No errors occurred
End of status report
---- CUETools DB Plugin V2.1.4
[CTDB TOCID: O1bpm4LHmiUjSI1hd9iuVIwZarc-] found
Submit result: O1bpm4LHmiUjSI1hd9iuVIwZarc- has been confirmed
Track | CTDB Status
1 | (1/1) Accurately ripped
2 | (1/1) Accurately ripped
3 | (1/1) Accurately ripped
4 | (1/1) Accurately ripped
5 | (1/1) Accurately ripped
6 | (1/1) Accurately ripped
7 | (1/1) Accurately ripped
8 | (1/1) Accurately ripped
9 | (1/1) Accurately ripped
10 | (1/1) Accurately ripped
==== Log checksum F2EB646990DF9A020236DBB99E8738B9CB79686E85BB00339532B67B97CF8404 ====
 
Содержание индексной карты (.CUE)
REM GENRE Jazz
REM DATE 2013
REM DISCID 840C130A
REM COMMENT "ExactAudioCopy v1.0b3"
PERFORMER "Bond, Alfred Vogel, Lucien Dubuis"
TITLE "Hang Em High"
FILE "01 - HangEmHigh.wav" WAVE
TRACK 01 AUDIO
TITLE "HangEmHigh"
PERFORMER "Bond, Alfred Vogel, Lucien Dubuis"
ISRC PLC531100020
INDEX 01 00:00:00
TRACK 02 AUDIO
TITLE "Sailing"
PERFORMER "Bond, Alfred Vogel, Lucien Dubuis"
ISRC PLC531100021
INDEX 00 03:06:39
FILE "02 - Sailing.wav" WAVE
INDEX 01 00:00:00
TRACK 03 AUDIO
TITLE "Dubfo"
PERFORMER "Bond, Alfred Vogel, Lucien Dubuis"
ISRC PLC531100022
INDEX 00 05:42:21
FILE "03 - Dubfo.wav" WAVE
INDEX 01 00:00:00
TRACK 04 AUDIO
TITLE "Nascar"
PERFORMER "Bond, Alfred Vogel, Lucien Dubuis"
ISRC PLC531100023
INDEX 00 05:27:27
FILE "04 - Nascar.wav" WAVE
INDEX 01 00:00:00
TRACK 05 AUDIO
TITLE "Wavin'"
PERFORMER "Bond, Alfred Vogel, Lucien Dubuis"
ISRC PLC531100024
INDEX 00 05:03:29
FILE "05 - Wavin'.wav" WAVE
INDEX 01 00:00:00
TRACK 06 AUDIO
TITLE "Feefeecult"
PERFORMER "Bond, Alfred Vogel, Lucien Dubuis"
ISRC PLC531100025
INDEX 00 06:01:37
FILE "06 - Feefeecult.wav" WAVE
INDEX 01 00:00:00
TRACK 07 AUDIO
TITLE "The Bug"
PERFORMER "Bond, Alfred Vogel, Lucien Dubuis"
ISRC PLC531100026
INDEX 00 04:45:52
FILE "07 - The Bug.wav" WAVE
INDEX 01 00:00:00
TRACK 08 AUDIO
TITLE "Ballad"
PERFORMER "Bond, Alfred Vogel, Lucien Dubuis"
ISRC PLC531100027
INDEX 00 05:34:00
FILE "08 - Ballad.wav" WAVE
INDEX 01 00:00:00
TRACK 09 AUDIO
TITLE "Roadeo"
PERFORMER "Bond, Alfred Vogel, Lucien Dubuis"
ISRC PLC531100028
INDEX 00 04:57:33
FILE "09 - Roadeo.wav" WAVE
INDEX 01 00:00:00
TRACK 10 AUDIO
TITLE "Intro"
PERFORMER "Bond, Alfred Vogel, Lucien Dubuis"
ISRC PLC531100029
INDEX 00 06:09:11
FILE "10 - Intro.wav" WAVE
INDEX 01 00:00:00
Доп. информация: The WEB version is here.
По всем вопросам пишите личное сообщение пользователю M0p94ok.
19:24
214
Нет комментариев. Ваш будет первым!