Вы используете незарегистрированную версию компонента "Вкладки"!

Поиск

(Avant-Garde / Modern Creative / Tzadik) Ben Goldberg / John Schott / Michael Sarin - What Comes Before - 1998, FLAC (image+.cue), lossless

(Avant-Garde / Modern Creative / Tzadik) Ben Goldberg / John Schott / Michael Sarin - What Comes Before - 1998, FLAC (image+.cue), lossless
Треклист:
Ben Goldberg / John Schott / Michael Sarin - What Comes Before
Жанр: Avant-Garde / Modern Creative / Tzadik
Год выпуска диска: 1998
Производитель диска: USA (Tzadik TZ7120)
Аудио кодек: FLAC
Тип рипа: image+.cue
Битрейт аудио: lossless
Продолжительность: 44:13
Ben Goldberg clarinet
John Schott guitar
Michael Sarin drum
1. Time Outside Of Time
2. Evening Song
3. Night Prayer Song
4. Morning Song
5. Thirteen Qualities
6. What Comes Before
A man who walks along a road or in the wilderness and does not know when sabbath falls -- should he count six days and then observe the sabbath, or observe the sabbath and then count six days?
~ Tractate Sabbath 69a, Babylonian Talmud
 
EAC Report
Exact Audio Copy V0.99 prebeta 4 from 23. January 2008
EAC extraction logfile from 13. February 2009, 7:20
Ben Goldberg / John Schott / Michael Sarin / What Comes Before
Used drive : TSSTcorpCD/DVDW SH-S182M Adapter: 2 ID: 0
Read mode : Secure
Utilize accurate stream : Yes
Defeat audio cache : Yes
Make use of C2 pointers : No
Read offset correction : 6
Overread into Lead-In and Lead-Out : No
Fill up missing offset samples with silence : Yes
Delete leading and trailing silent blocks : No
Null samples used in CRC calculations : Yes
Used interface : Installed external ASPI interface
Used output format : User Defined Encoder
Selected bitrate : 1024 kBit/s
Quality : High
Add ID3 tag : No
Command line compressor : C:\Program Files\Exact Audio Copy\FLAC\FLAC.EXE
Additional command line options : -8 -V -T "ARTIST=%a" -T "TITLE=%t" -T "ALBUM=%g" -T "DATE=%y" -T "TRACKNUMBER=%n" -T "GENRE=%m" -T "COMMENT=%e" %s -o %d
TOC of the extracted CD
Track | Start | Length | Start sector | End sector
---------------------------------------------------------
1 | 0:00.00 | 5:56.32 | 0 | 26731
2 | 5:56.32 | 6:35.48 | 26732 | 56404
3 | 12:32.05 | 17:21.42 | 56405 | 134521
4 | 29:53.47 | 5:28.53 | 134522 | 159174
5 | 35:22.25 | 6:57.20 | 159175 | 190469
6 | 42:19.45 | 1:53.52 | 190470 | 198996
Range status and errors
Selected range
Filename C:\Documents and Settings\Igor\My Documents\My Music\eac\Goldberg Schott Sarin - What Comes Before.wav
Peak level 87.3 %
Range quality 100.0 %
Test CRC B49DC6D0
Copy CRC B49DC6D0
Copy OK
No errors occurred
AccurateRip summary
Track 1 not present in database
Track 2 not present in database
Track 3 not present in database
Track 4 not present in database
Track 5 not present in database
Track 6 not present in database
None of the tracks are present in the AccurateRip database
End of status report
Any questions -> support@pro-jazz.com. По всем вопросам пишите -> support@pro-jazz.com
08:36
196
Нет комментариев. Ваш будет первым!